<?xml version="1.0" standalone="no"?>
<!DOCTYPE svg PUBLIC "-//W3C//DTD SVG 1.1//EN" "http://www.w3.org/Graphics/SVG/1.1/DTD/svg11.dtd">
<svg xmlns="http://www.w3.org/2000/svg">
<metadata>Copyright (C) 2012 by original authors @ fontello.com</metadata>
<defs>
<font id="fontello" horiz-adv-x="1000" >
<font-face font-family="fontello" font-weight="400" font-stretch="normal" units-per-em="1000" ascent="850" descent="-150" />
<missing-glyph horiz-adv-x="1000" />
<glyph glyph-name="plus" unicode="&#xe81c;" d="M786 439l0-107q0-22-16-38t-38-16l-232 0 0-232q0-22-16-38t-38-16l-107 0q-22 0-38 16t-16 38l0 232-232 0q-22 0-38 16t-16 38l0 107q0 22 16 38t38 16l232 0 0 232q0 22 16 38t38 16l107 0q22 0 38-16t16-38l0-232 232 0q22 0 38-16t16-38z" horiz-adv-x="785.714" />
<glyph glyph-name="plus-1" unicode="&#xe8f9;" d="M550 400q30 0 30-50t-30-50l-210 0 0-210q0-30-50-30t-50 30l0 210-210 0q-30 0-30 50t30 50l210 0 0 210q0 30 50 30t50-30l0-210 210 0z" horiz-adv-x="580" />
<glyph glyph-name="minus" unicode="&#xe820;" d="M786 439l0-107q0-22-16-38t-38-16l-679 0q-22 0-38 16t-16 38l0 107q0 22 16 38t38 16l679 0q22 0 38-16t16-38z" horiz-adv-x="785.714" />
<glyph glyph-name="minus-1" unicode="&#xe8f6;" d="M550 400q30 0 30-50t-30-50l-520 0q-30 0-30 50t30 50l520 0z" horiz-adv-x="580" />
<glyph glyph-name="info-1" unicode="&#xe8f1;" d="M352 850q48 0 74-27t26-69q0-50-39-88t-95-38q-48 0-74 26t-24 72q0 46 35 85t97 39z m-206-1000q-100 0-54 178l60 254q14 56 0 56-12 0-54-18t-72-38l-26 44q90 78 189 126t151 48q78 0 36-162l-70-266q-16-64 6-64 44 0 118 60l30-40q-84-86-175-132t-139-46z" horiz-adv-x="460" />
<glyph glyph-name="left-big" unicode="&#xe881;" d="M857 350l0-71q0-30-18-50t-47-21l-393 0 163-164q21-20 21-50t-21-50l-42-42q-21-21-50-21t-51 21l-363 364q-21 21-21 50t21 51l363 363q21 21 51 21 29 0 50-21l42-41q21-21 21-51t-21-51l-163-163 393 0q29 0 47-21t18-50z" horiz-adv-x="857.143" />
<glyph glyph-name="up-big" unicode="&#xe883;" d="M899 308q0-28-21-50l-42-42q-21-21-51-21t-50 21l-164 163 0-393q0-29-21-47t-50-18l-71 0q-30 0-50 18t-21 47l0 393-164-163q-20-21-50-21t-50 21l-42 42q-21 21-21 50 0 30 21 51l363 363q20 21 50 21t51-21l363-363q21-22 21-51z" horiz-adv-x="928.571" />
<glyph glyph-name="right-big" unicode="&#xe882;" d="M821 314q0-30-21-51l-363-363q-22-21-51-21-28 0-50 21l-42 42q-21 21-21 51t21 51l163 163-393 0q-29 0-47 21t-18 50l0 71q0 30 18 50t47 21l393 0-163 164q-21 20-21 50t21 50l42 42q21 21 50 21 30 0 51-21l363-363q21-20 21-50z" horiz-adv-x="857.143" />
<glyph glyph-name="down-big" unicode="&#xe880;" d="M899 386q0-30-21-50l-363-364q-22-21-51-21-30 0-50 21l-363 364q-21 20-21 50t21 51l41 42q22 21 51 21 30 0 50-21l164-164 0 393q0 29 21 50t50 21l71 0q29 0 50-21t21-50l0-393 164 164q21 21 50 21t51-21l42-42q21-22 21-51z" horiz-adv-x="928.571" />
<glyph glyph-name="switch" unicode="&#xe93a;" d="M700 592l0-140-500 0 0-90-200 160 200 170 0-100 500 0z m300-420l-200-160 0 90-500 0 0 140 500 0 0 100z" horiz-adv-x="1000" />
<glyph glyph-name="plus-squared-1" unicode="&#xe8f7;" d="M700 750q42 0 71-29t29-71l0-600q0-40-29-70t-71-30l-600 0q-40 0-70 30t-30 70l0 600q0 42 30 71t70 29l600 0z m-50-450l0 100-200 0 0 200-100 0 0-200-200 0 0-100 200 0 0-200 100 0 0 200 200 0z" horiz-adv-x="800" />
<glyph glyph-name="minus-squared-1" unicode="&#xe8f4;" d="M700 750q42 0 71-29t29-71l0-600q0-40-29-70t-71-30l-600 0q-40 0-70 30t-30 70l0 600q0 42 30 71t70 29l600 0z m-50-450l0 100-500 0 0-100 500 0z" horiz-adv-x="800" />
<glyph glyph-name="home-1" unicode="&#xe8ef;" d="M888 336q16-16 11-27t-27-11l-84 0 0-310q0-14-1-21t-8-13-23-6l-204 0 0 310-204 0 0-310-194 0q-28 0-35 10t-7 30l0 310-84 0q-22 0-27 11t11 27l400 402q16 16 38 16t38-16z" horiz-adv-x="900" />
<glyph glyph-name="home" unicode="&#xe833;" d="M786 296l0-268q0-15-11-25t-25-11l-214 0 0 214-143 0 0-214-214 0q-15 0-25 11t-11 25l0 268q0 1 0 2t0 2l321 264 321-264q1-1 1-3z m124 39l-35-41q-4-5-12-6l-2 0q-7 0-12 4l-386 322-386-322q-7-4-13-4-7 1-12 6l-35 41q-4 6-4 13t6 12l401 334q18 15 42 15t42-15l136-114 0 109q0 8 5 13t13 5l107 0q8 0 13-5t5-13l0-228 122-102q6-4 6-12t-4-13z" horiz-adv-x="928.571" />
<glyph glyph-name="keyboard-1" unicode="&#xe903;" d="M930 650q28 0 49-21t21-49l0-460q0-30-21-50t-49-20l-860 0q-28 0-49 20t-21 50l0 460q0 28 21 49t49 21l860 0z m-380-100l0-100 100 0 0 100-100 0z m150-150l-100 0 0-100 100 0 0 100z m-300 150l0-100 100 0 0 100-100 0z m150-150l-100 0 0-100 100 0 0 100z m-300 150l0-100 100 0 0 100-100 0z m150-150l-100 0 0-100 100 0 0 100z m-300 150l0-100 100 0 0 100-100 0z m150-150l-100 0 0-100 100 0 0 100z m-50-250l0 100-100 0 0-100 100 0z m550 0l0 100-500 0 0-100 500 0z m150 0l0 100-100 0 0-100 100 0z m-150 150l100 0 0 100-100 0 0-100z m150 150l0 100-200 0 0-100 200 0z" horiz-adv-x="1000" />
<glyph glyph-name="pause-1" unicode="&#xe937;" d="M440 700q90 0 90-64l0-570q0-66-90-66t-90 66l0 570q0 64 90 64z m-350 0q90 0 90-64l0-570q0-66-90-66t-90 66l0 570q0 64 90 64z" horiz-adv-x="530" />
<glyph glyph-name="pause" unicode="&#xe891;" d="M857 743l0-786q0-15-11-25t-25-11l-286 0q-15 0-25 11t-11 25l0 786q0 15 11 25t25 11l286 0q15 0 25-11t11-25z m-500 0l0-786q0-15-11-25t-25-11l-286 0q-15 0-25 11t-11 25l0 786q0 15 11 25t25 11l286 0q15 0 25-11t11-25z" horiz-adv-x="857.143" />
<glyph glyph-name="fast-forward" unicode="&#xe933;" d="M866 374q14-10 14-24t-14-22l-372-248q-22-14-37-6t-15 36l0 482q0 28 15 36t37-6z m-454 0q14-10 14-24t-14-22l-360-248q-20-14-36-6t-16 36l0 482q0 28 16 36t36-6z" horiz-adv-x="880" />
<glyph glyph-name="fast-fw" unicode="&#xe88c;" d="M25-71q-11-11-18-7t-7 18l0 821q0 15 7 18t18-7l396-396q4-4 7-11l0 396q0 15 7 18t18-7l396-396q11-11 11-25t-11-25l-396-396q-11-11-18-7t-7 18l0 396q-3-6-7-11z" horiz-adv-x="928.571" />
<glyph glyph-name="fast-backward" unicode="&#xe932;" d="M0 350q0 14 14 24l374 248q20 14 36 6t16-36l0-482q0-28-16-36t-36 6l-374 248q-14 8-14 22z m454 0q0 14 14 24l360 248q20 14 36 6t16-36l0-482q0-28-16-36t-36 6l-360 248q-14 8-14 22z" horiz-adv-x="880" />
<glyph glyph-name="fast-bw" unicode="&#xe88b;" d="M903 771q11 11 18 7t7-18l0-821q0-15-7-18t-18 7l-396 396q-4 5-7 11l0-396q0-15-7-18t-18 7l-396 396q-11 11-11 25t11 25l396 396q11 11 18 7t7-18l0-396q3 6 7 11z" horiz-adv-x="928.571" />
<glyph glyph-name="to-end-1" unicode="&#xe936;" d="M412 374q14-10 14-24 0-12-14-22l-362-228q-22-14-36-5t-14 35l0 442q0 26 14 35t36-5z m114 268q74 0 74-58l0-466q0-58-74-58-76 0-76 58l0 466q0 58 76 58z" horiz-adv-x="600" />
<glyph glyph-name="to-end" unicode="&#xe890;" d="M25-71q-11-11-18-7t-7 18l0 821q0 15 7 18t18-7l396-396q4-4 7-11l0 378q0 15 11 25t25 11l71 0q15 0 25-11t11-25l0-786q0-15-11-25t-25-11l-71 0q-15 0-25 11t-11 25l0 378q-3-6-7-11z" horiz-adv-x="571.429" />
<glyph glyph-name="to-start" unicode="&#xe88e;" d="M546 771q11 11 18 7t7-18l0-821q0-15-7-18t-18 7l-396 396q-5 5-7 11l0-378q0-15-11-25t-25-11l-71 0q-15 0-25 11t-11 25l0 786q0 15 11 25t25 11l71 0q15 0 25-11t11-25l0-378q2 6 7 11z" horiz-adv-x="571.429" />
<glyph glyph-name="to-start-1" unicode="&#xe934;" d="M174 350q0 14 14 24l364 228q20 14 34 5t14-35l0-442q0-26-14-35t-34 5l-364 228q-14 10-14 22z m-174 234q0 58 76 58 74 0 74-58l0-466q0-58-74-58-76 0-76 58l0 466z" horiz-adv-x="600" />
<glyph glyph-name="hourglass" unicode="&#xe90f;" d="M560 622q0-44-48-96t-97-99-49-77 49-76 97-97 48-97l0-118q0-34-86-73t-194-39-194 39-86 73l0 118q0 46 48 97t97 97 49 76-49 77-97 99-48 96l0 118q0 32 87 71t193 39 193-39 87-71l0-118z m-482 112l-18-14q-4-8 4-14 92-52 216-52 132 0 220 50 14 10-16 30-96 54-202 54-120 0-204-54z m228-384q0 18 4 33t18 33 20 25 31 31 29 28q92 92 92 122l2 50q-100-54-222-54t-222 54l4-50q0-32 90-122 6-6 22-21t23-22l19-19t17-21 11-20 9-23 3-24q0-10-1-19t-6-18-8-16-11-17l-12-15t-15-16-16-15-18-16-17-16q-90-90-90-122l0-66q8 4 66 23t92 43 34 58q0 30 26 30t26-30q0-34 33-58t94-43 67-23l0 66q0 30-92 122-4 4-21 20t-22 21-18 19-18 22-12 20-9 23-2 23z" horiz-adv-x="560" />
<glyph glyph-name="stop-1" unicode="&#xe938;" d="M526 650q74 0 74-64l0-470q0-66-74-66l-450 0q-76 0-76 66l0 470q0 36 18 50t58 14l450 0z" horiz-adv-x="600" />
<glyph glyph-name="stop" unicode="&#xe892;" d="M857 743l0-786q0-15-11-25t-25-11l-786 0q-15 0-25 11t-11 25l0 786q0 15 11 25t25 11l786 0q15 0 25-11t11-25z" horiz-adv-x="857.143" />
<glyph glyph-name="up-dir-1" unicode="&#xe92d;" d="M0 150l230 400 230-400-460 0z" horiz-adv-x="460" />
<glyph glyph-name="up-dir" unicode="&#xe87e;" d="M571 171q0-15-11-25t-25-11l-500 0q-15 0-25 11t-11 25 11 25l250 250q11 11 25 11t25-11l250-250q11-11 11-25z" horiz-adv-x="571.429" />
<glyph glyph-name="play-1" unicode="&#xe939;" d="M486 376q14-10 14-26 0-14-14-24l-428-266q-24-16-41-6t-17 40l0 514q0 30 17 40t41-6z" horiz-adv-x="500" />
<glyph glyph-name="play" unicode="&#xe895;" d="M772 333l-741-412q-13-7-22-2t-9 20l0 821q0 15 9 20t22-2l741-412q13-7 13-17t-13-17z" horiz-adv-x="785.714" />
<glyph glyph-name="right-dir" unicode="&#xe87c;" d="M321 350q0-15-11-25l-250-250q-11-11-25-11t-25 11-11 25l0 500q0 15 11 25t25 11 25-11l250-250q11-11 11-25z" horiz-adv-x="357.143" />
<glyph glyph-name="right-dir-1" unicode="&#xe92c;" d="M0 580l400-230-400-230 0 460z" horiz-adv-x="400" />
<glyph glyph-name="down-dir" unicode="&#xe87f;" d="M571 457q0-15-11-25l-250-250q-11-11-25-11t-25 11l-250 250q-11 11-11 25t11 25 25 11l500 0q15 0 25-11t11-25z" horiz-adv-x="571.429" />
<glyph glyph-name="down-dir-1" unicode="&#xe92a;" d="M460 550l-230-400-230 400 460 0z" horiz-adv-x="460" />
<glyph glyph-name="left-dir-1" unicode="&#xe92b;" d="M400 580l0-460-400 230z" horiz-adv-x="400" />
<glyph glyph-name="left-dir" unicode="&#xe87d;" d="M357 600l0-500q0-15-11-25t-25-11-25 11l-250 250q-11 11-11 25t11 25l250 250q11 11 25 11t25-11 11-25z" horiz-adv-x="357.143" />
<glyph glyph-name="cloud" unicode="&#xe8a1;" d="M1071 207q0-89-63-151t-151-63l-607 0q-103 0-177 73t-73 177q0 74 40 135t104 91q-1 16-1 24 0 118 84 202t202 84q88 0 160-49t105-128q39 35 93 35 59 0 101-42t42-101q0-42-23-77 72-17 119-75t47-134z" horiz-adv-x="1071.429" />
<glyph glyph-name="star-1" unicode="&#xe8e1;" d="M440 790l120-336 320 0-262-196 94-348-272 208-272-208 94 348-262 196 320 0z" horiz-adv-x="880" />
<glyph glyph-name="star" unicode="&#xe809;" d="M929 489q0-12-15-27l-203-198 48-279q1-4 1-11 0-12-6-20t-17-8q-11 0-22 7l-251 132-251-132q-12-7-22-7-12 0-18 8t-6 20q0 3 1 11l48 279-203 198q-14 15-14 27 0 21 31 26l280 41 126 254q11 23 27 23t27-23l126-254 280-41q31-5 31-26z" horiz-adv-x="928.571" />
<glyph glyph-name="star-empty-1" unicode="&#xe8e2;" d="M880 454l-262-196 94-348-272 208-272-208 94 348-262 196 320 0 120 336 120-336 320 0z m-440-238l150-124-62 178 144 114-176-4-56 202-54-202-176 4 142-114-62-178z" horiz-adv-x="880" />
<glyph glyph-name="star-empty" unicode="&#xe80a;" d="M634 290l171 166-235 35-105 213-105-213-235-35 171-166-41-235 211 111 210-111z m294 199q0-12-15-27l-203-198 48-279q1-4 1-11 0-28-23-28-11 0-22 7l-251 132-251-132q-12-7-22-7-12 0-18 8t-6 20q0 3 1 11l48 279-203 198q-14 15-14 27 0 21 31 26l280 41 126 254q11 23 27 23t27-23l126-254 280-41q31-5 31-26z" horiz-adv-x="928.571" />
<glyph glyph-name="check" unicode="&#xe8bf;" d="M786 331l0-177q0-66-47-114t-114-47l-464 0q-66 0-114 47t-47 114l0 464q0 66 47 114t114 47l464 0q35 0 65-14 8-4 10-13t-5-16l-27-27q-6-6-13-6-2 0-5 1-13 3-25 3l-464 0q-37 0-63-26t-26-63l0-464q0-37 26-63t63-26l464 0q37 0 63 26t26 63l0 142q0 7 5 12l36 36q6 6 13 6 3 0 7-2 11-4 11-16z m129 273l-454-454q-13-13-32-13t-32 13l-240 240q-13 13-13 32t13 32l61 61q13 13 32 13t32-13l147-147 361 361q13 13 32 13t32-13l61-61q13-13 13-32t-13-32z" horiz-adv-x="928.571" />
<glyph glyph-name="th-list" unicode="&#xe816;" d="M286 154l0-107q0-22-16-38t-38-16l-179 0q-22 0-38 16t-16 38l0 107q0 22 16 38t38 16l179 0q22 0 38-16t16-38z m0 286l0-107q0-22-16-38t-38-16l-179 0q-22 0-38 16t-16 38l0 107q0 22 16 38t38 16l179 0q22 0 38-16t16-38z m714-286l0-107q0-22-16-38t-38-16l-536 0q-22 0-38 16t-16 38l0 107q0 22 16 38t38 16l536 0q22 0 38-16t16-38z m-714 571l0-107q0-22-16-38t-38-16l-179 0q-22 0-38 16t-16 38l0 107q0 22 16 38t38 16l179 0q22 0 38-16t16-38z m714-286l0-107q0-22-16-38t-38-16l-536 0q-22 0-38 16t-16 38l0 107q0 22 16 38t38 16l536 0q22 0 38-16t16-38z m0 286l0-107q0-22-16-38t-38-16l-536 0q-22 0-38 16t-16 38l0 107q0 22 16 38t38 16l536 0q22 0 38-16t16-38z" horiz-adv-x="1000" />
<glyph glyph-name="menu-1" unicode="&#xe8ea;" d="M650 400q22 0 36-15t14-35-15-35-35-15l-600 0q-20 0-35 15t-15 35 14 35 36 15l600 0z m-600 100q-20 0-35 15t-15 35 14 35 36 15l600 0q22 0 36-15t14-35-15-35-35-15l-600 0z m600-300q22 0 36-15t14-35-15-35-35-15l-600 0q-20 0-35 15t-15 35 14 35 36 15l600 0z" horiz-adv-x="700" />
<glyph glyph-name="heart-empty" unicode="&#xe807;" d="M929 517q0 45-12 80t-31 55-45 33-52 17-55 4-62-14-62-36-48-40-33-34q-10-12-27-12t-27 12q-13 16-33 34t-48 40-62 36-62 14-55-4-52-17-45-33-31-55-12-80q0-94 104-198l324-312 324 312q105 105 105 199z m71 0q0-123-128-251l-348-335q-10-10-25-10t-25 10l-348 336q-6 4-15 15t-31 37-38 54-30 68-13 77q0 123 71 192t196 69q35 0 71-12t67-32 53-38 42-38q20 20 42 38t53 38 67 32 71 12q125 0 196-69t71-192z" horiz-adv-x="1000" />
<glyph glyph-name="heart-empty-1" unicode="&#xe8e4;" d="M790 642q70-64 70-156t-70-156l-360-330-360 330q-70 64-70 156t70 156q64 58 152 58t150-58l58-52 56 52q64 58 152 58t152-58z m-54-260q42 40 42 104 0 66-38 100-38 38-102 38-52 0-104-48l-104-92-106 92q-48 48-102 48-64 0-104-38-38-36-38-100 0-66 44-104l306-286z" horiz-adv-x="860" />
<glyph glyph-name="heart-1" unicode="&#xe8e3;" d="M790 644q70-64 70-156t-70-158l-360-330-360 330q-70 66-70 158t70 156q62 58 151 58t153-58l56-52 58 52q62 58 150 58t152-58z" horiz-adv-x="860" />
<glyph glyph-name="heart" unicode="&#xe808;" d="M500-79q-15 0-25 10l-348 336q-6 4-15 15t-31 37-38 54-30 68-13 77q0 123 71 192t196 69q35 0 71-12t67-32 53-38 42-38q20 20 42 38t53 38 67 32 71 12q125 0 196-69t71-192q0-123-128-251l-348-335q-10-10-25-10z" horiz-adv-x="1000" />
<glyph glyph-name="layout" unicode="&#xe8eb;" d="M170 650q80 0 80-80l0-90q0-80-80-80l-90 0q-80 0-80 80l0 90q0 80 80 80l90 0z m350 0q80 0 80-80l0-90q0-80-80-80l-90 0q-80 0-80 80l0 90q0 80 80 80l90 0z m-350-350q80 0 80-80l0-90q0-80-80-80l-90 0q-80 0-80 80l0 90q0 80 80 80l90 0z m350 0q80 0 80-80l0-90q0-80-80-80l-90 0q-80 0-80 80l0 90q0 80 80 80l90 0z" horiz-adv-x="600" />
<glyph glyph-name="th" unicode="&#xe815;" d="M286 154l0-107q0-22-16-38t-38-16l-179 0q-22 0-38 16t-16 38l0 107q0 22 16 38t38 16l179 0q22 0 38-16t16-38z m0 286l0-107q0-22-16-38t-38-16l-179 0q-22 0-38 16t-16 38l0 107q0 22 16 38t38 16l179 0q22 0 38-16t16-38z m357-286l0-107q0-22-16-38t-38-16l-179 0q-22 0-38 16t-16 38l0 107q0 22 16 38t38 16l179 0q22 0 38-16t16-38z m-357 571l0-107q0-22-16-38t-38-16l-179 0q-22 0-38 16t-16 38l0 107q0 22 16 38t38 16l179 0q22 0 38-16t16-38z m357-286l0-107q0-22-16-38t-38-16l-179 0q-22 0-38 16t-16 38l0 107q0 22 16 38t38 16l179 0q22 0 38-16t16-38z m357-286l0-107q0-22-16-38t-38-16l-179 0q-22 0-38 16t-16 38l0 107q0 22 16 38t38 16l179 0q22 0 38-16t16-38z m-357 571l0-107q0-22-16-38t-38-16l-179 0q-22 0-38 16t-16 38l0 107q0 22 16 38t38 16l179 0q22 0 38-16t16-38z m357-286l0-107q0-22-16-38t-38-16l-179 0q-22 0-38 16t-16 38l0 107q0 22 16 38t38 16l179 0q22 0 38-16t16-38z m0 286l0-107q0-22-16-38t-38-16l-179 0q-22 0-38 16t-16 38l0 107q0 22 16 38t38 16l179 0q22 0 38-16t16-38z" horiz-adv-x="1000" />
<glyph glyph-name="flag" unicode="&#xe8fe;" d="M874 616q14 6 22-1t0-19q-96-138-164-213t-110-90-73-2-60 37-63 40-93-4-139-86l90-352-100 0-184 720 92 34q90 66 152 86t98 3 64-51 62-71 79-62 129-20 198 51z" horiz-adv-x="900" />
<glyph glyph-name="tools" unicode="&#xe90b;" d="M155 506q-8-8-11-22t-3-25-2-11q-2-2-17-15t-19-17q-16-14-28 4l-70 76q-10 12 2 24 2 2 18 14t20 16q6 6 27 6t37 14q14 14 18 38t10 30q2 0 9 7t26 22 41 31q134 90 186 96 122 0 148-2 12 0-8-8-120-52-152-76-80-56-36-114 34-46 38-48 8-8-2-14-2-2-38-35t-38-35q-14-8-18-4-42 48-71 60t-67-12z m286-26l410-476q18-22-2-38l-48-42q-22-14-38 4l-414 472q-8 8 0 20l72 62q12 8 20-2z m554 202q16-104-16-166-50-88-154-62-56 12-100-32l-82-78-68 78 68 70q24 24 31 53t6 65 5 58q12 56 140 112 12 6 18-3t2-15q-12-12-46-80-14-10-12-35t40-53q58-40 96 22 6 12 26 41t22 33q4 10 13 9t11-17z m-858-684l254 248 76-86-246-242q-20-20-38-4l-46 46q-22 18 0 38z" horiz-adv-x="1000" />
<glyph glyph-name="cog" unicode="&#xe85d;" d="M571 350q0 59-42 101t-101 42-101-42-42-101 42-101 101-42 101 42 42 101z m286 61l0-124q0-7-4-13t-11-7l-103-16q-11-30-22-51 20-28 60-77 6-7 6-14t-5-13q-15-21-55-60t-52-40q-7 0-15 5l-77 60q-25-13-51-21-9-76-16-104-4-16-20-16l-124 0q-8 0-14 5t-6 12l-16 103q-27 9-50 21l-79-60q-6-5-14-5t-14 6q-70 64-92 94-4 6-4 13t4 13q8 12 28 37t30 39q-15 28-23 55l-102 15q-7 1-12 7t-4 13l0 124q0 7 4 13t11 7l104 16q8 26 22 51-22 32-60 77-6 7-6 13t5 13q15 20 55 60t53 40q7 0 15-6l77-60q25 13 51 21 9 76 16 104 4 16 20 16l124 0q8 0 14-5t6-12l16-103q27-9 50-21l79 60q5 5 13 5 7 0 14-6 72-66 92-95 4-4 4-12 0-7-4-13-8-12-28-37t-30-39q15-28 23-55l102-16q7-1 12-7t4-13z" horiz-adv-x="857.143" />
<glyph glyph-name="attention" unicode="&#xe849;" d="M571 83l0 106q0 8-5 13t-13 5l-107 0q-7 0-13-5t-5-13l0-106q0-8 5-13t13-5l107 0q7 0 13 5t5 13z m-1 209l10 256q0 7-6 11-7 6-13 6l-123 0q-6 0-13-6-6-4-6-12l9-255q0-6 6-9t13-4l103 0q8 0 13 4t6 9z m-8 521l429-786q20-35-1-70-9-16-26-26t-35-9l-857 0q-19 0-35 9t-26 26q-21 35-1 70l429 786q9 17 26 27t36 10 36-10 26-27z" horiz-adv-x="1000" />
<glyph glyph-name="attention-1" unicode="&#xe906;" d="M957-24q10-16 0-34-10-16-30-16l-892 0q-18 0-28 16-12 18-2 34l446 782q8 18 30 18t30-18z m-420 50l0 100-110 0 0-100 110 0z m0 174l0 300-110 0 0-300 110 0z" horiz-adv-x="962" />
<glyph glyph-name="record" unicode="&#xe935;" d="M350 700q146 0 248-102t102-248q0-144-102-247t-248-103-248 103-102 247q0 146 102 248t248 102z" horiz-adv-x="700" />
<glyph glyph-name="cog-alt" unicode="&#xe85e;" d="M500 350q0 59-42 101t-101 42-101-42-42-101 42-101 101-42 101 42 42 101z m429-286q0 29-21 50t-50 21-50-21-21-50q0-30 21-50t50-21 50 21 21 50z m0 571q0 29-21 50t-50 21-50-21-21-50q0-30 21-50t50-21 50 21 21 50z m-214-235l0-103q0-6-4-11t-9-6l-86-13q-6-20-18-42 19-27 50-64 4-6 4-11 0-7-4-11-13-17-46-50t-44-33q-6 0-12 4l-64 50q-21-11-43-17-6-60-13-86-4-13-17-13l-104 0q-6 0-11 4t-6 10l-13 85q-19 6-42 17l-66-50q-4-4-11-4-6 0-12 4-80 74-80 89 0 5 4 11 6 8 23 30t26 34q-13 25-20 46l-85 13q-6 1-9 5t-4 11l0 103q0 6 4 11t9 6l86 13q6 20 18 42-19 27-50 64-4 6-4 11 0 7 4 11 12 17 46 50t44 33q6 0 12-4l64-50q19 10 43 18 6 60 13 86 4 13 17 13l104 0q6 0 11-4t6-10l13-85q19-6 42-17l66 50q4 4 11 4 6 0 12-4 80-74 80-89 0-5-4-11-7-9-23-30t-25-33q13-27 19-46l85-13q6-1 9-6t4-11z m357-297l0-78q0-9-83-17-7-15-17-29 28-63 28-77 0-2-2-4-68-40-69-40-4 0-26 26t-29 38q-11-1-17-1t-17 1q-8-12-29-38t-26-26q-1 0-69 40-2 2-2 4 0 14 28 77-10 14-17 29-83 8-83 17l0 78q0 9 83 17 7 16 17 29-28 63-28 77 0 2 2 4 2 1 20 11t33 19 17 9q4 0 26-26t29-38q11 1 17 1t17-1q28 40 51 62l3 1q2 0 69-39 2-2 2-4 0-14-28-77 9-13 17-29 83-8 83-17z m0 571l0-78q0-9-83-17-7-15-17-29 28-63 28-77 0-2-2-4-68-40-69-40-4 0-26 26t-29 38q-11-1-17-1t-17 1q-8-12-29-38t-26-26q-1 0-69 40-2 2-2 4 0 14 28 77-10 14-17 29-83 8-83 17l0 78q0 9 83 17 7 16 17 29-28 63-28 77 0 2 2 4 2 1 20 11t33 19 17 9q4 0 26-26t29-38q11 1 17 1t17-1q28 40 51 62l3 1q2 0 69-39 2-2 2-4 0-14-28-77 9-13 17-29 83-8 83-17z" horiz-adv-x="1071.429" />
<glyph glyph-name="scissors" unicode="&#xe8aa;" d="M536 350q15 0 25-11t11-25-11-25-25-11-25 11-11 25 11 25 25 11z m167-36l283-222q16-11 14-31-3-20-20-28l-71-36q-7-4-16-4t-17 4l-385 216-61-37q-4-2-7-3 8-27 6-54-4-43-31-82t-74-69q-74-47-155-47-76 0-124 44-50 47-44 116 4 42 31 82t73 69q74 47 155 47 46 0 84-17 5 7 12 12l68 41-68 41q-7 5-12 12-38-17-84-17-81 0-155 47-46 30-73 69t-31 82q-3 33 9 63t35 52q47 44 124 44 81 0 155-47 46-29 74-69t31-83q2-27-6-54 2-1 7-3l61-37 385 216q8 4 17 4t16-4l71-36q17-9 20-28 2-20-14-31z m-380 145q26 23 12 60t-59 65q-51 33-107 33-41 0-63-20-26-23-12-60t59-65q51-33 107-33 41 0 63 20z m-47-416q45 28 59 65t-12 60q-22 20-63 20-56 0-107-33-45-28-59-65t12-60q22-20 63-20 56 0 107 33z m99 342l54-32 0 6q0 20 18 31l8 4-44 26-15-15q-2-2-6-6t-7-7q-1-1-2-2t-2-1z m125-125l54-18 411 321-71 36-429-240 0-63-89-54 5-4q1-1 4-3 2-2 6-7t6-7l15-15z m393-232l71 36-290 228-99-77q-1-2-7-4z" horiz-adv-x="1000" />
<glyph glyph-name="edit" unicode="&#xe853;" d="M496 189l65 65-85 85-65-65 0-31 54 0 0-54 31 0z m246 402q-9 9-18-1l-195-195q-9-9-1-18t18 1l195 195q9 9 1 18z m45-331l0-106q0-66-47-114t-114-47l-464 0q-66 0-114 47t-47 114l0 464q0 66 47 114t114 47l464 0q35 0 65-14 8-4 10-13t-5-16l-27-27q-8-8-18-4-13 3-25 3l-464 0q-37 0-63-26t-26-63l0-464q0-37 26-63t63-26l464 0q37 0 63 26t26 63l0 70q0 7 5 12l36 36q8 8 20 4t11-16z m-54 412l161-161-375-375-161 0 0 161z m248-74l-51-51-161 161 51 51q16 16 38 16t38-16l85-85q16-16 16-38t-16-38z" horiz-adv-x="1000" />
<glyph glyph-name="pencil-1" unicode="&#xe900;" d="M718 680q32-32 47-64t15-48l0-16-252-252-290-288-238-52 50 240 290 288 252 252q54 12 126-60z m-494-640l24 24q-2 44-52 94-22 22-45 35t-35 13l-14 2-22-24-18-80q28-16 46-34 24-24 36-48z" horiz-adv-x="780" />
<glyph glyph-name="pencil" unicode="&#xe840;" d="M203-7l51 51-131 131-51-51 0-60 71 0 0-71 60 0z m292 518q0 12-12 12-6 0-9-4l-302-302q-4-4-4-9 0-12 12-12 6 0 9 4l302 302q4 4 4 9z m-30 107l232-232-464-464-232 0 0 232z m381-54q0-30-21-50l-93-93-232 232 93 92q20 21 50 21t51-21l131-131q21-22 21-51z" horiz-adv-x="857.143" />
<glyph glyph-name="check-1" unicode="&#xe8e8;" d="M249 0q-34 0-56 28l-180 236q-16 24-12 52t26 46 51 14 47-28l118-154 296 474q16 24 43 30t53-8q24-16 30-43t-8-53l-350-560q-20-32-56-32z" horiz-adv-x="667" />
<glyph glyph-name="ok" unicode="&#xe817;" d="M932 534q0-22-16-38l-404-404-76-76q-16-16-38-16t-38 16l-76 76-202 202q-16 16-16 38t16 38l76 76q16 16 38 16t38-16l164-165 366 367q16 16 38 16t38-16l76-76q16-16 16-38z" horiz-adv-x="1000" />
<glyph glyph-name="ok-circled" unicode="&#xe818;" d="M716 440q0 16-10 26l-51 50q-11 11-25 11t-25-11l-228-227-126 126q-11 11-25 11t-25-11l-51-50q-10-10-10-26 0-15 10-25l202-202q11-11 25-11 15 0 26 11l303 303q10 10 10 25z m141-90q0-117-57-215t-156-156-215-57-215 57-156 156-57 215 57 215 156 156 215 57 215-57 156-156 57-215z" horiz-adv-x="857.143" />
<glyph glyph-name="cancel-1" unicode="&#xe8e9;" d="M452 194q18-18 18-43t-18-43q-18-16-43-16t-43 16l-132 152-132-152q-18-16-43-16t-43 16q-16 18-16 43t16 43l138 156-138 158q-16 18-16 43t16 43q18 16 43 16t43-16l132-152 132 152q18 16 43 16t43-16q18-18 18-43t-18-43l-138-158z" horiz-adv-x="470" />
<glyph glyph-name="cancel" unicode="&#xe81b;" d="M724 112q0-22-16-38l-76-76q-16-16-38-16t-38 16l-164 164-164-164q-16-16-38-16t-38 16l-76 76q-16 16-16 38t16 38l164 164-164 164q-16 16-16 38t16 38l76 76q16 16 38 16t38-16l164-164 164 164q16 16 38 16t38-16l76-76q16-16 16-38t-16-38l-164-164 164-164q16-16 16-38z" horiz-adv-x="785.714" />
<glyph glyph-name="cancel-circled" unicode="&#xe8fb;" d="M420 770q174 0 297-123t123-297-123-297-297-123-297 123-123 297 123 297 297 123z m86-420l154 154-86 86-154-152-152 152-88-86 154-154-154-152 88-86 152 152 154-152 86 86z" horiz-adv-x="840" />
<glyph glyph-name="asterisk" unicode="&#xe8c3;" d="M827 264q26-15 33-43t-7-54l-36-61q-15-26-43-33t-54 7l-148 85 0-171q0-29-21-50t-50-21l-71 0q-29 0-50 21t-21 50l0 171-148-85q-26-15-54-7t-43 33l-36 61q-15 26-7 54t33 43l148 86-148 86q-26 15-33 43t7 54l36 61q15 26 43 33t54-7l148-85 0 171q0 29 21 50t50 21l71 0q29 0 50-21t21-50l0-171 148 85q26 15 54 7t43-33l36-61q15-26 7-54t-33-43l-148-86z" horiz-adv-x="928.571" />
<glyph glyph-name="cancel-squared" unicode="&#xe8fa;" d="M700 750q42 0 71-29t29-71l0-600q0-40-29-70t-71-30l-600 0q-40 0-70 30t-30 70l0 600q0 42 30 71t70 29l600 0z m-146-638l86 86-154 152 154 154-86 86-154-152-152 152-88-86 154-154-154-152 88-86 152 152z" horiz-adv-x="800" />
<glyph glyph-name="help-1" unicode="&#xe8f3;" d="M494 740q86-62 86-184 0-64-42-124-12-20-88-80l-46-30q-40-34-48-60-6-16-8-44 0-14-16-14l-128 0q-16 0-16 12 4 98 28 124 16 22 48 48t56 42l24 14q22 16 34 34 28 44 28 70 0 40-26 78-28 36-92 36-68 0-94-44-28-42-28-92l-166 0q6 162 114 232 70 42 166 42 130 0 214-60z m-216-636q44 0 73-30t27-74q-2-46-32-73t-74-25q-44 0-73 29t-27 75 32 73 74 25z" horiz-adv-x="580" />
<glyph glyph-name="attention-circled" unicode="&#xe848;" d="M429 779q117 0 215-57t156-156 57-215-57-215-156-156-215-57-215 57-156 156-57 215 57 215 156 156 215 57z m71-696l0 106q0 8-5 13t-12 5l-107 0q-7 0-13-6t-6-13l0-106q0-7 6-13t13-6l107 0q7 0 12 5t5 13z m-1 192l10 347q0 7-6 10-6 4-13 4l-123 0q-8 0-13-4-6-3-6-10l9-347q0-6 6-10t13-4l103 0q8 0 13 4t6 10z" horiz-adv-x="857.143" />
<glyph glyph-name="plus-circled-1" unicode="&#xe8f8;" d="M420 770q174 0 297-123t123-297-123-297-297-123-297 123-123 297 123 297 297 123z m52-470l200 0 0 102-200 0 0 202-102 0 0-202-202 0 0-102 202 0 0-202 102 0 0 202z" horiz-adv-x="840" />
<glyph glyph-name="plus-circled" unicode="&#xe81d;" d="M679 314l0 71q0 15-11 25t-25 11l-143 0 0 143q0 15-11 25t-25 11l-71 0q-15 0-25-11t-11-25l0-143-143 0q-15 0-25-11t-11-25l0-71q0-15 11-25t25-11l143 0 0-143q0-15 11-25t25-11l71 0q15 0 25 11t11 25l0 143 143 0q15 0 25 11t11 25z m179 36q0-117-57-215t-156-156-215-57-215 57-156 156-57 215 57 215 156 156 215 57 215-57 156-156 57-215z" horiz-adv-x="857.143" />
<glyph glyph-name="minus-circled-1" unicode="&#xe8f5;" d="M420 770q174 0 297-123t123-297-123-297-297-123-297 123-123 297 123 297 297 123z m252-368l-504 0 0-102 504 0 0 102z" horiz-adv-x="840" />
<glyph glyph-name="minus-circled" unicode="&#xe821;" d="M679 314l0 71q0 15-11 25t-25 11l-429 0q-15 0-25-11t-11-25l0-71q0-15 11-25t25-11l429 0q15 0 25 11t11 25z m179 36q0-117-57-215t-156-156-215-57-215 57-156 156-57 215 57 215 156 156 215 57 215-57 156-156 57-215z" horiz-adv-x="857.143" />
<glyph glyph-name="right" unicode="&#xe928;" d="M350 680l380-330-380-330 0 192-350 0 0 278 350 0 0 190z" horiz-adv-x="730" />
<glyph glyph-name="forward" unicode="&#xe83d;" d="M1000 493q0-15-11-25l-286-286q-11-11-25-11t-25 11-11 25l0 143-125 0q-55 0-98-3t-86-12-74-24-59-39-45-56-27-77-10-101q0-31 3-69 0-3 1-13t1-15q0-8-5-14t-13-6q-9 0-16 9-4 5-7 12t-8 17-6 13q-71 159-71 252 0 111 30 186 90 225 488 225l125 0 0 143q0 15 11 25t25 11 25-11l286-286q11-11 11-25z" horiz-adv-x="1000" />
<glyph glyph-name="ccw" unicode="&#xe889;" d="M857 350q0-87-34-166t-92-137-137-92-166-34q-96 0-182 40t-147 114q-4 6-4 13t5 11l76 77q6 5 14 5 9-1 13-7 41-53 100-82t126-29q58 0 111 23t91 61 61 91 23 111-23 111-61 91-91 61-111 23q-55 0-105-20t-89-57l76-77q17-17 8-39t-33-22l-250 0q-15 0-25 11t-11 25l0 250q0 23 22 33 22 9 39-8l73-72q60 56 136 87t159 31q87 0 166-34t137-92 92-137 34-166z" horiz-adv-x="857.143" />
<glyph glyph-name="ccw-1" unicode="&#xe93f;" d="M532 736q170 0 289-120t119-290-119-290-289-120q-142 0-252 88l70 74q84-60 182-60 126 0 216 90t90 218-90 218-216 90q-124 0-214-87t-92-211l142 0-184-204-184 204 124 0q2 166 122 283t286 117z" horiz-adv-x="940" />
<glyph glyph-name="cw-1" unicode="&#xe93e;" d="M408 760q168 0 287-116t123-282l122 0-184-206-184 206 144 0q-4 124-94 210t-214 86q-126 0-216-90t-90-218q0-126 90-216t216-90q104 0 182 60l70-76q-110-88-252-88-168 0-288 120t-120 290 120 290 288 120z" horiz-adv-x="940" />
<glyph glyph-name="cw" unicode="&#xe888;" d="M857 707l0-250q0-15-11-25t-25-11l-250 0q-23 0-33 22-9 22 8 39l77 77q-83 76-195 76-58 0-111-23t-91-61-61-91-23-111 23-111 61-91 91-61 111-23q66 0 126 29t100 82q4 6 13 7 8 0 14-5l76-77q5-4 5-11t-4-13q-61-74-147-114t-182-40q-87 0-166 34t-137 92-92 137-34 166 34 166 92 137 137 92 166 34q82 0 159-31t136-87l73 72q16 17 39 8 22-9 22-33z" horiz-adv-x="857.143" />
<glyph glyph-name="left" unicode="&#xe927;" d="M378 20l-378 330 378 330 0-190 352 0 0-278-352 0 0-192z" horiz-adv-x="730" />
<glyph glyph-name="up" unicode="&#xe929;" d="M660 336l-192 0 0-350-276 0 0 350-192 0 330 380z" horiz-adv-x="660" />
<glyph glyph-name="down" unicode="&#xe926;" d="M660 366l-330-380-330 380 192 0 0 350 276 0 0-350 192 0z" horiz-adv-x="660" />
<glyph glyph-name="resize-vertical-1" unicode="&#xe97d;" d="M241 239l0-167 112 0-167-168-168 168 112 0 0 167 111 0z m-111 223l0 168-112 0 168 167 167-167-112 0 0-168-111 0z" horiz-adv-x="370" />
<glyph glyph-name="resize-vertical" unicode="&#xe870;" d="M393 671q0-15-11-25t-25-11l-71 0 0-571 71 0q15 0 25-11t11-25-11-25l-143-143q-11-11-25-11t-25 11l-143 143q-11 11-11 25t11 25 25 11l71 0 0 571-71 0q-15 0-25 11t-11 25 11 25l143 143q11 11 25 11t25-11l143-143q11-11 11-25z" horiz-adv-x="428.571" />
<glyph glyph-name="resize-horizontal-1" unicode="&#xe97f;" d="M353 294l-167 0 0-111-168 167 168 168 0-112 167 0 0-112z m223 112l168 0 0 112 167-168-167-167 0 111-168 0 0 112z" horiz-adv-x="928" />
<glyph glyph-name="resize-horizontal" unicode="&#xe86e;" d="M1000 350q0-15-11-25l-143-143q-11-11-25-11t-25 11-11 25l0 71-571 0 0-71q0-15-11-25t-25-11-25 11l-143 143q-11 11-11 25t11 25l143 143q11 11 25 11t25-11 11-25l0-71 571 0 0 71q0 15 11 25t25 11 25-11l143-143q11-11 11-25z" horiz-adv-x="1000" />
<glyph glyph-name="list-add" unicode="&#xe942;" d="M350 400q22 0 36-15t14-35-15-35-35-15l-300 0q-20 0-35 15t-15 35 14 35 36 15l300 0z m0-200q22 0 36-15t14-35-15-35-35-15l-300 0q-20 0-35 15t-15 35 14 35 36 15l300 0z m620 200q30 0 30-50t-30-50l-170 0 0-170q0-30-50-30t-50 30l0 170-164 0q-30 0-30 50t30 50l164 0 0 170q0 30 50 30t50-30l0-170 170 0z m-620 200q22 0 36-15t14-35-15-35-35-15l-300 0q-20 0-35 15t-15 35 14 35 36 15l300 0z" horiz-adv-x="1000" />
<glyph glyph-name="list-1" unicode="&#xe941;" d="M100 200q20 0 35-15t15-35-15-35-35-15l-50 0q-20 0-35 15t-15 35 14 35 36 15l50 0z m0 200q20 0 35-15t15-35-15-35-35-15l-50 0q-20 0-35 15t-15 35 14 35 36 15l50 0z m0 200q20 0 35-15t15-35-15-35-35-15l-50 0q-20 0-35 15t-15 35 14 35 36 15l50 0z m200-100q-20 0-35 15t-15 35 15 35 35 15l350 0q22 0 36-15t14-35-15-35-35-15l-350 0z m350-100q22 0 36-15t14-35-15-35-35-15l-350 0q-20 0-35 15t-15 35 15 35 35 15l350 0z m0-200q22 0 36-15t14-35-15-35-35-15l-350 0q-20 0-35 15t-15 35 15 35 35 15l350 0z" horiz-adv-x="700" />
<glyph glyph-name="down-1" unicode="&#xe966;" d="M700 391q31-31 31-74t-31-74l-334-334-335 334q-31 31-31 74t31 74 74 31 74-31l83-83 0 378q0 43 31 73t74 31q43 0 73-31t31-73l0-378 83 83q31 31 74 31t74-31z" horiz-adv-x="731" />
<glyph glyph-name="left-1" unicode="&#xe967;" d="M776 454q43 0 73-31t31-74q0-43-30-73t-74-31l-378 0 83-83q31-30 31-73t-31-74q-30-30-74-30t-74 30l-334 334 334 335q31 31 74 31t74-31q31-30 31-73t-31-74l-83-83 378 0z" horiz-adv-x="880" />
<glyph glyph-name="loop-alt-outline" unicode="&#xe96b;" d="M781 793q64 0 110-46t46-110l0-9q113-29 186-128t74-228q0-151-106-258t-258-107l-469 0q-151 0-258 107t-107 258 107 258 258 106l51 0q61 0 104-39l151 150q45 45 110 45z m53-781q108 0 184 77t76 184-69 184-165 76l-109 0 66 68q15 15 15 37t-15 37-36 15-36-15l-194-194 194-193q15-15 36-15t36 15 15 37-15 37l-66 68 109 0q54 0 92-46t38-111-46-111-111-46l-469 0q-65 0-111 46t-46 111 46 111 111 46l51 0q21 0 37 15t16 36-16 37-37 16l-51 0q-108 0-184-76t-77-184 77-184 184-77l469 0z m51 313q0-43-31-73t-73-31q-44 0-74 30l-194 194q-11-30-38-49t-60-19l-51 0q-44 0-74-31t-31-73q0-44 31-74t74-31l469 0q43 0 73 31t31 74q0 38-19 67t-46 36q13-21 13-51z" horiz-adv-x="1198" />
<glyph glyph-name="loop-alt" unicode="&#xe96c;" d="M703 533q96 0 166-77t69-184-76-184-184-76l-418 0q-108 0-184 76t-76 184 76 184 184 77q21 0 37-16t16-37-16-37-37-16q-65 0-111-46t-46-111 46-111 111-46l418 0q65 0 111 46t46 111-39 111-93 46l-108 0 66-68q15-15 15-36t-15-36q-16-16-36-16t-36 16l-194 193 194 193q15 15 36 15t36-15 15-36-15-36l-66-68 108 0z" horiz-adv-x="938" />
<glyph glyph-name="loop-outline" unicode="&#xe96a;" d="M781 871q64 0 110-46t46-110l0-9q113-29 186-128t74-228q0-151-106-258t-258-107l-53 0q-60 0-104 40l-150-150q-46-46-111-46-64 0-110 46t-46 110q0 1 1 5t1 5q-113 29-187 128t-74 227q0 151 107 258t258 106l51 0q60 0 104-40l151 151q45 45 110 45z m53-781q108 0 184 77t76 184-69 184-165 76l-109 0 66 68q15 15 15 37t-15 37-36 15-36-15l-194-194 194-193q15-15 36-15t36 15 15 37-15 37l-66 68 109 0q54 0 92-46t38-111-46-111-111-46l-53 0q-21 0-37-16t-16-37 16-37 37-16l53 0z m-521 209q0 43 31 73t73 31q44 0 74-30l194-194q11 30 38 49t60 19l53 0q43 0 73 31t31 74q0 38-19 67t-46 36q13-21 13-51 0-43-31-73t-73-31q-44 0-74 30l-194 194q-11-30-38-49t-60-19l-51 0q-44 0-74-31t-31-73q0-38 19-67t46-36q-13 21-13 50z m156 260q0 21-16 37t-37 16l-51 0q-108 0-184-76t-77-184 69-184 166-77l109 0-68-68q-15-15-15-36t15-36q16-16 36-16 21 0 38 16l193 193-193 193q-16 16-38 16-20 0-36-16-15-15-15-36t15-36l68-68-109 0q-54 0-92 46t-38 111 46 111 111 46l51 0q21 0 37 15t16 36z" horiz-adv-x="1198" />
<glyph glyph-name="right-1" unicode="&#xe969;" d="M399 684q31 31 74 31t74-31l334-335-334-334q-30-30-74-30t-74 30q-31 31-31 74t31 73l83 83-378 0q-44 0-74 31t-30 73q0 44 31 74t73 31l378 0-83 83q-31 31-31 74t31 73z" horiz-adv-x="880" />
<glyph glyph-name="up-1" unicode="&#xe968;" d="M366 790l334-334q31-31 31-74t-31-74-74-31-74 31l-83 83 0-378q0-44-31-74t-73-30q-44 0-74 31t-31 73l0 378-83-83q-31-31-74-31t-74 31-31 74 31 74z" horiz-adv-x="731" />
<glyph glyph-name="left-open-outline" unicode="&#xe962;" d="M638 91q0-64-46-110t-110-46q-65 0-110 45l-371 371 371 371q44 44 111 44t111-44q45-45 45-111 0-65-45-110l-150-150 150-150q45-45 45-110z m-490 260l298-298q15-15 37-15t37 15 15 38q0 21-15 36l-224 224 224 224q15 15 15 36 0 23-15 38t-37 15-37-15z" horiz-adv-x="638" />
<glyph glyph-name="left-open-2" unicode="&#xe963;" d="M481 684q31-31 31-74t-31-74l-186-186 186-186q31-31 31-74t-31-74-74-31-74 31l-334 334 334 334q30 31 74 31t74-31z" horiz-adv-x="513" />
<glyph glyph-name="right-open-outline" unicode="&#xe964;" d="M156-66q-64 0-110 46t-46 110 46 110l150 150-150 150q-46 46-46 110 0 65 46 111 44 44 110 44t110-44l371-371-371-371q-45-45-110-45z m0 729q-21 0-37-16t-16-37q0-20 16-36l223-224-223-224q-16-16-16-36 0-21 16-38 15-15 36-15t36 15l298 298-298 298q-15 15-36 15z" horiz-adv-x="638" />
<glyph glyph-name="right-open-2" unicode="&#xe965;" d="M31 684q30 31 74 31t74-31l335-334-335-334q-31-31-74-31t-74 31-31 74 31 74l188 186-188 186q-31 31-31 74t31 74z" horiz-adv-x="514" />
<glyph glyph-name="users-outline" unicode="&#xe95b;" d="M599 273q-108 0-184 76t-76 184 76 184 184 76 184-76 77-184-77-184-184-76z m0 416q-65 0-111-46t-46-111 46-111 111-46 111 46 46 111-46 111-111 46z m416-469q-55 0-93 38t-38 92 38 92 93 38 93-38 38-92-38-92-93-38z m0 209q-31 0-54-23t-23-56q0-31 23-54t55-23 56 23 23 54-23 55-56 24z m0-240q80 0 131-34t51-79q0-23-53-40t-130-18q-43 0-83 6 0-3 1-7t1-7q0-41-96-73t-239-31q-150 0-242 31t-92 73q0 3 1 8t1 8q-50-8-84-8-81 0-132 18t-51 40q0 45 50 79t133 34q99 0 151-50 99 81 265 81t265-81q53 50 151 50z m-833-118q60 0 103 11 5 8 13 18-38 38-115 38-98 0-126-49 44-18 126-18z m416-60q131 0 216 30-25 30-82 53t-134 23q-81 0-138-23t-80-53q84-30 218-30z m416 60q84 0 126 19-13 19-46 33t-81 14q-76 0-115-36 5-6 13-19 40-11 103-11z m-833 149q-55 0-93 38t-38 92 38 92 92 38 92-38 38-92-38-92-93-38z m0 209q-33 0-56-24t-23-55 23-54 56-23 55 23 23 54q0 33-23 56t-54 23z" horiz-adv-x="1198" />
<glyph glyph-name="users-2" unicode="&#xe95a;" d="M860 533q0-108-77-184t-184-76-184 76-76 184 76 184 184 76 184-76 77-184z m286-183q0-54-38-92t-93-38-93 38-38 92 38 92 93 38 93-38 38-92z m-131-161q80 0 131-34t51-79q0-23-53-40t-130-18q-43 0-83 6 0-3 1-7t1-7q0-41-96-73t-239-31q-150 0-242 31t-92 73q0 3 1 8t1 8q-50-8-84-8-81 0-132 18t-51 40q0 45 50 79t133 34q99 0 151-50 99 81 265 81t265-81q53 50 151 50z m-703 161q0-54-38-92t-93-38-93 38-38 92 38 92 93 38q54 0 92-38t38-92z" horiz-adv-x="1198" />
<glyph glyph-name="heart-2" unicode="&#xe961;" d="M508-66q-16 0-29 9-26 18-84 58t-154 113-134 109q-106 106-106 264 0 116 82 198t198 82q143 0 228-118 39 55 99 86t129 31q116 0 198-82t81-198q0-158-106-264-38-38-133-109t-155-113-84-58q-13-9-30-9z m-228 729q-73 0-124-51t-52-125q0-114 76-190 79-79 328-248 249 169 328 248 76 76 76 190 0 74-51 125t-124 51q-74 0-125-51t-51-125q0-21-16-36t-37-15-36 15-15 36q0 74-52 125t-124 51z" horiz-adv-x="1015" />
<glyph glyph-name="heart-filled" unicode="&#xe960;" d="M456 487q0 95-67 161t-162 66-161-66-66-161q0-138 91-229 36-36 128-104t164-118l74-50q281 190 364 273 91 91 91 229 0 95-66 161t-161 66-161-66-66-161z" horiz-adv-x="911" />
<glyph glyph-name="fast-fw-outline" unicode="&#xe973;" d="M573 559l0-419 216 210z m-10 119q36 0 65-26l310-301q-186-181-310-301-28-28-65-28-39 0-66 28t-28 66l0 469q0 39 28 66t66 28z m-459-119l0-419 216 210z m-10 119q36 0 65-26l310-301q-186-181-310-301-28-28-65-28-39 0-66 28t-28 66l0 469q0 39 28 66t66 28z" horiz-adv-x="938" />
<glyph glyph-name="fast-fw-1" unicode="&#xe974;" d="M628 652l310-301q-186-181-310-301-28-28-65-28-39 0-66 28t-28 66l0 469q0 39 28 66t66 28q36 0 65-26z m-469 0l310-301q-186-181-310-301-28-28-65-28-39 0-66 28t-28 66l0 469q0 39 28 66t66 28q36 0 65-26z" horiz-adv-x="938" />
<glyph glyph-name="pause-outline" unicode="&#xe971;" d="M156-41q-65 0-111 46t-46 111l0 469q0 65 46 111t111 46 111-46 46-111l0-469q0-65-46-111t-111-46z m0 676q-21 0-37-15t-16-36l0-469q0-21 16-37t37-16 37 16 16 37l0 469q0 21-16 36t-37 15z m365-676q-65 0-111 46t-46 111l0 469q0 65 46 111t111 46 111-46 46-111l0-469q0-65-46-111t-111-46z m0 676q-21 0-37-15t-16-36l0-469q0-21 16-37t37-16 36 16 15 37l0 469q0 21-15 36t-36 15z" horiz-adv-x="678" />
<glyph glyph-name="pause-2" unicode="&#xe972;" d="M104 663q44 0 74-31t31-73l0-418q0-43-31-73t-74-31-74 30-30 74l0 418q0 44 30 74t74 30z m365 0q44 0 74-30t30-74l0-418q0-44-30-74t-74-30-74 30-30 74l0 418q0 44 30 74t74 30z" horiz-adv-x="573" />
<glyph glyph-name="play-outline" unicode="&#xe96e;" d="M104 610l0-520q1 0 1 1t1 1l265 259-263 256-3 3t-3 1z m0 105q44 0 74-30l344-335q-208-201-345-335-30-30-73-30t-73 31-31 74l0 520q0 44 31 74t73 31z" horiz-adv-x="521" />
<glyph glyph-name="play-2" unicode="&#xe96d;" d="M178 15q-30-30-74-30-43 0-73 31t-31 74l0 520q0 44 31 74t73 31q44 0 74-30l344-335q-206-201-344-335z" horiz-adv-x="521" />
<glyph glyph-name="record-outline" unicode="&#xe977;" d="M313 559q-86 0-148-61t-61-148 61-148 148-61 148 61 61 148-61 148-148 61z m0 104q130 0 221-91t91-221-91-221-221-91-221 91-91 221 91 221 221 91z" horiz-adv-x="625" />
<glyph glyph-name="record-1" unicode="&#xe978;" d="M313 663q130 0 221-91t91-221-91-221-221-91-221 91-91 221 91 221 221 91z" horiz-adv-x="625" />
<glyph glyph-name="rewind-outline" unicode="&#xe975;" d="M365 559l-216-209 216-210 0 419z m10 119q39 0 66-28t28-66l0-469q0-39-28-66t-66-28q-35 0-65 28l-310 301q186 181 310 301 26 26 65 26z m459-119l-216-209 216-210 0 419z m10 119q39 0 66-28t28-66l0-469q0-39-28-66t-66-28q-35 0-65 28l-310 301q186 181 310 301 26 26 65 26z" horiz-adv-x="938" />
<glyph glyph-name="rewind" unicode="&#xe976;" d="M375 678q39 0 66-28t28-66l0-469q0-39-28-66t-66-28q-35 0-65 28l-310 301q186 181 310 301 26 26 65 26z m469 0q39 0 66-28t28-66l0-469q0-39-28-66t-66-28q-35 0-65 28l-310 301q186 181 310 301 26 26 65 26z" horiz-adv-x="938" />
<glyph glyph-name="stop-outline" unicode="&#xe96f;" d="M521 559l-418 0 0-418 418 0 0 418z m0 104q44 0 74-30t30-74l0-418q0-44-30-74t-74-30l-418 0q-44 0-74 30t-30 74l0 418q0 44 30 74t74 30l418 0z" horiz-adv-x="625" />
<glyph glyph-name="stop-2" unicode="&#xe970;" d="M521 663q44 0 74-30t30-74l0-418q0-44-30-74t-74-30l-418 0q-44 0-74 30t-30 74l0 418q0 44 30 74t74 30l418 0z" horiz-adv-x="625" />
<glyph glyph-name="star-2" unicode="&#xe95f;" d="M741-118q-19 0-39 11l-214 121-215-121q-44-24-84 4-41 29-31 79l50 243q-10 9-39 35t-45 40l-99 90q-38 35-21 83t66 54l244 26 103 225q21 46 71 46 48 0 71-46l101-225 245-28q48-4 64-52t-21-83l-183-166 50-241q6-35-16-64t-60-29z m-425 343q-1-4-8-36t-17-84-19-93l190 108q26 14 51 0l190-108-44 214q-6 29 16 49l161 148-218 24q-30 4-41 30l-90 199-90-199q-13-26-43-30l-216-24 161-148q21-19 15-50z" horiz-adv-x="976" />
<glyph glyph-name="star-filled" unicode="&#xe95e;" d="M297 498q69 153 114 253 6 15 24 15t24-15l114-253q164-18 274-30 15-3 21-18t-6-28l-204-186q33-161 55-270 3-15-10-26t-28-2l-240 136q-144-81-240-136-15-9-28 2t-11 26l56 270q-123 111-204 186-13 11-6 27t21 18z" horiz-adv-x="869" />
<glyph glyph-name="user-add-outline" unicode="&#xe959;" d="M938 273l-313 0q-21 0-37 15t-16 36 16 37 37 16l313 0q21 0 37-16t16-37-16-36-37-15z m-156-156q-21 0-37 15t-16 36l0 313q0 21 16 37t37 16 37-16 16-37l0-313q0-21-16-36t-37-15z m-469 573q-65 0-111-46t-46-111 46-111 111-46 111 46 46 111-46 111-111 46z m0 104q108 0 184-76t76-184-76-184-184-76-184 76-76 184 76 184 184 76z m0-676q-74 0-126-23t-73-54q75-29 199-29t198 29q-21 30-73 53t-124 23z m0 104q136 0 224-63t88-146q0-41-89-73t-223-31q-140 0-226 31t-86 73q0 83 86 146t226 63z" horiz-adv-x="990" />
<glyph glyph-name="user-add-1" unicode="&#xe958;" d="M573 533q0-108-76-184t-184-76-184 76-76 184 76 184 184 76 184-76 76-184z m-260-625q-140 0-226 31t-86 73q0 83 86 146t226 63q136 0 224-63t88-146q0-41-89-73t-223-31z m625 469q21 0 37-16t16-37-16-36-37-15l-104 0 0-105q0-21-16-36t-37-15-37 15-16 36l0 105-104 0q-21 0-37 15t-16 36 16 37 37 16l104 0 0 104q0 21 16 37t37 16 37-16 16-37l0-104 104 0z" horiz-adv-x="990" />
<glyph glyph-name="user-delete" unicode="&#xe957;" d="M938 273l-313 0q-21 0-37 15t-16 36 16 37 37 16l313 0q21 0 37-16t16-37-16-36-37-15z m-625 520q108 0 184-76t76-184-76-184-184-76-184 76-76 184 76 184 184 76z m0-573q136 0 224-63t88-146q0-41-89-73t-223-31q-140 0-226 31t-86 73q0 83 86 146t226 63z" horiz-adv-x="990" />
<glyph glyph-name="user-outline" unicode="&#xe95c;" d="M313 689q-65 0-111-46t-46-111 46-111 111-46 111 46 46 111-46 111-111 46z m0 104q108 0 184-76t76-184-76-184-184-76-184 76-76 184 76 184 184 76z m0-676q-74 0-126-23t-73-54q75-29 199-29t198 29q-21 30-73 53t-124 23z m0 104q136 0 224-63t88-146q0-41-89-73t-223-31q-140 0-226 31t-86 73q0 83 86 146t226 63z" horiz-adv-x="625" />
<glyph glyph-name="user-2" unicode="&#xe95d;" d="M313 793q108 0 184-76t76-184-76-184-184-76-184 76-76 184 76 184 184 76z m-313-781q0 83 86 146t226 63q136 0 224-63t88-146q0-41-89-73t-223-31q-140 0-226 31t-86 73z" horiz-adv-x="625" />
<glyph glyph-name="left-bold" unicode="&#xe92f;" d="M378 730l0-190 352 0 0-378-352 0 0-192-378 380z" horiz-adv-x="730" />
<glyph glyph-name="right-bold" unicode="&#xe930;" d="M350 730l380-380-380-380 0 192-350 0 0 378 350 0 0 190z" horiz-adv-x="730" />
<glyph glyph-name="up-bold" unicode="&#xe931;" d="M760 336l-192 0 0-350-376 0 0 350-192 0 380 380z" horiz-adv-x="760" />
<glyph glyph-name="down-bold" unicode="&#xe92e;" d="M760 366l-380-380-380 380 192 0 0 350 376 0 0-350 192 0z" horiz-adv-x="760" />
<glyph glyph-name="user-add" unicode="&#xe8df;" d="M620 128q180-64 180-122l0-106-800 0 0 202q36 14 82 26 94 34 129 69t35 95q0 22-23 48t-31 74q-2 12-23 25t-25 61q0 16 5 26t9 12l4 4q-8 50-12 88-6 54 40 112t160 58 160-58 42-112l-14-88q18-8 18-42-2-28-9-43t-14-17-14-8-9-18q-10-46-33-73t-23-49q0-60 36-95t130-69z m230 272l150 0 0-100-150 0 0-150-100 0 0 150-150 0 0 100 150 0 0 150 100 0 0-150z" horiz-adv-x="1000" />
<glyph glyph-name="star-half" unicode="&#xe80c;" d="M464 832l0-747-251-132q-12-7-22-7-12 0-18 8t-6 20q0 3 1 11l48 279-203 198q-14 15-14 27 0 21 31 26l280 41 126 254q11 23 27 23z" horiz-adv-x="500" />
<glyph glyph-name="ok-circled2" unicode="&#xe819;" d="M653 396l-235-235q-11-11-25-11t-25 11l-164 164q-11 11-11 25t11 25l57 57q11 11 25 11t25-11l82-82 153 153q11 11 25 11t25-11l57-57q11-11 11-25t-11-25z m79-46q0 83-41 152t-110 110-152 41-152-41-110-110-41-152 41-152 110-110 152-41 152 41 110 110 41 152z m125 0q0-117-57-215t-156-156-215-57-215 57-156 156-57 215 57 215 156 156 215 57 215-57 156-156 57-215z" horiz-adv-x="857.143" />
<glyph glyph-name="help-circled-1" unicode="&#xe8f2;" d="M454 810q190 2 326-130t140-322q2-190-131-327t-323-141q-190-2-327 131t-139 323q-4 190 130 327t324 139z m-2-740q30 0 49 19t19 47q2 30-17 49t-49 19l-2 0q-28 0-47-18t-21-46q0-30 19-49t47-21l2 0z m166 328q26 34 26 78 0 78-54 116-52 38-134 38-64 0-104-26-68-42-72-146l0-4 110 0 0 4q0 26 16 54 16 24 54 24 40 0 52-20 16-20 16-44 0-18-16-40-8-12-20-20l-6-4q-6-4-16-11t-20-15-21-17-17-17q-14-20-18-78l0-8 108 0 0 4q0 12 4 28 6 20 28 36l28 18q46 34 56 50z" horiz-adv-x="920" />
<glyph glyph-name="help-circled" unicode="&#xe836;" d="M500 82l0 107q0 8-5 13t-13 5l-107 0q-8 0-13-5t-5-13l0-107q0-8 5-13t13-5l107 0q8 0 13 5t5 13z m143 375q0 49-31 91t-77 65-95 23q-136 0-207-119-8-13 4-23l74-56q4-3 11-3 9 0 14 7 30 38 48 51 19 13 48 13 27 0 48-15t21-33q0-21-11-34t-38-25q-35-16-64-48t-29-70l0-20q0-8 5-13t13-5l107 0q8 0 13 5t5 13q0 11 12 28t30 28q18 10 27 16t26 20 25 27 16 34 7 45z m214-107q0-117-57-215t-156-156-215-57-215 57-156 156-57 215 57 215 156 156 215 57 215-57 156-156 57-215z" horiz-adv-x="857.143" />
<glyph glyph-name="info-circled" unicode="&#xe835;" d="M571 82l0 89q0 8-5 13t-13 5l-54 0 0 286q0 8-5 13t-13 5l-179 0q-8 0-13-5t-5-13l0-89q0-8 5-13t13-5l54 0 0-179-54 0q-8 0-13-5t-5-13l0-89q0-8 5-13t13-5l250 0q8 0 13 5t5 13z m-71 500l0 89q0 8-5 13t-13 5l-107 0q-8 0-13-5t-5-13l0-89q0-8 5-13t13-5l107 0q8 0 13 5t5 13z m357-232q0-117-57-215t-156-156-215-57-215 57-156 156-57 215 57 215 156 156 215 57 215-57 156-156 57-215z" horiz-adv-x="857.143" />
<glyph glyph-name="info-circled-1" unicode="&#xe8f0;" d="M454 810q190 2 326-130t140-322q2-190-131-327t-323-141q-190-2-327 131t-139 323q-4 190 130 327t324 139z m52-152q-42 0-65-24t-23-50q-2-28 15-44t49-16q38 0 61 22t23 54q0 58-60 58z m-120-594q30 0 84 26t106 78l-18 24q-48-36-72-36-14 0-4 38l42 160q26 96-22 96-30 0-89-29t-115-75l16-26q52 34 74 34 12 0 0-34l-36-152q-26-104 34-104z" horiz-adv-x="920" />
<glyph glyph-name="th-large" unicode="&#xe814;" d="M429 279l0-214q0-29-21-50t-50-21l-286 0q-29 0-50 21t-21 50l0 214q0 29 21 50t50 21l286 0q29 0 50-21t21-50z m0 429l0-214q0-29-21-50t-50-21l-286 0q-29 0-50 21t-21 50l0 214q0 29 21 50t50 21l286 0q29 0 50-21t21-50z m500-429l0-214q0-29-21-50t-50-21l-286 0q-29 0-50 21t-21 50l0 214q0 29 21 50t50 21l286 0q29 0 50-21t21-50z m0 429l0-214q0-29-21-50t-50-21l-286 0q-29 0-50 21t-21 50l0 214q0 29 21 50t50 21l286 0q29 0 50-21t21-50z" horiz-adv-x="928.571" />
<glyph glyph-name="eye" unicode="&#xe82b;" d="M929 314q-85 132-213 197 34-58 34-126 0-103-73-177t-177-73-177 73-73 177q0 68 34 126-128-65-213-197 74-114 186-182t242-68 242 68 186 182z m-402 214q0 11-8 19t-19 8q-70 0-120-50t-50-120q0-11 8-19t19-8 19 8 8 19q0 48 34 82t82 34q11 0 19 8t8 19z m473-214q0-19-11-39-78-128-210-206t-279-77-279 78-210 205q-11 20-11 39t11 39q78 128 210 205t279 78 279-78 210-205q11-20 11-39z" horiz-adv-x="1000" />
<glyph glyph-name="eye-1" unicode="&#xe8ec;" d="M500 630q92 0 177-25t141-62 99-77 63-71 20-45-20-44-63-71-99-78-141-62-177-25-177 25-141 62-99 78-63 71-20 44 20 45 63 71 99 77 141 62 177 25z m0-494q92 0 157 63t65 151q0 90-65 153t-157 63-157-63-65-153q0-88 65-151t157-63z m0 214q8-8 37-2t50 11 25-9q0-44-33-75t-79-31-78 31-32 75q0 46 32 77t78 31q14 0 10-23t-12-47 2-38z" horiz-adv-x="1000" />
<glyph glyph-name="eye-off" unicode="&#xe82a;" d="M310 105l44 79q-49 35-76 89t-27 113q0 68 34 126-128-65-213-197 93-144 238-209z m217 424q0 11-8 19t-19 8q-70 0-120-50t-50-120q0-11 8-19t19-8 19 8 8 19q0 48 34 82t82 34q11 0 19 8t8 19z m203 107q0-4-1-5-59-105-176-316t-176-316l-27-50q-6-9-16-9-7 0-75 39-9 6-9 16 0 7 25 49-80 36-147 97t-116 137q-11 17-11 39t11 39q85 131 212 207t277 76q50 0 100-9l30 54q6 9 16 9 3 0 10-3t17-9 18-10 18-10 11-6q9-6 9-15z m21-249q0-78-44-141t-117-92l156 280q4-25 4-47z m250-71q0-20-11-39-22-36-61-81-84-96-194-149t-234-53l41 74q118 10 219 76t168 171q-64 100-157 164l35 62q53-36 102-85t81-103q11-19 11-39z" horiz-adv-x="1000" />
<glyph glyph-name="tag" unicode="&#xe829;" d="M250 600q0 30-21 50t-50 21-50-21-21-50 21-50 50-21 50 21 21 50z m595-321q0-30-21-50l-274-275q-22-21-51-21-30 0-50 21l-399 400q-21 21-36 56t-15 65l0 232q0 29 21 50t50 21l232 0q30 0 65-15t57-36l399-398q21-22 21-51z" horiz-adv-x="857.143" />
<glyph glyph-name="tags" unicode="&#xe828;" d="M250 600q0 30-21 50t-50 21-50-21-21-50 21-50 50-21 50 21 21 50z m595-321q0-30-21-50l-274-275q-22-21-51-21-30 0-50 21l-399 400q-21 21-36 56t-15 65l0 232q0 29 21 50t50 21l232 0q30 0 65-15t57-36l399-398q21-22 21-51z m214 0q0-30-21-50l-274-275q-22-21-51-21-20 0-33 8t-30 25l262 262q21 21 21 50t-21 51l-399 398q-21 21-57 36t-65 15l125 0q30 0 65-15t57-36l399-398q21-22 21-51z" horiz-adv-x="1071.429" />
<glyph glyph-name="camera-alt" unicode="&#xe813;" d="M518 386q0 8-5 13t-13 5q-37 0-63-26t-26-63q0-8 5-13t13-5 13 5 5 13q0 22 16 38t38 16q8 0 13 5t5 13z m125-73q0-59-42-101t-101-42-101 42-42 101 42 101 101 42 101-42 42-101z m-571-320l857 0 0 71-857 0 0-71z m643 320q0 89-63 151t-151 63-151-63-63-151 63-151 151-63 151 63 63 151z m-571 358l214 0 0 71-214 0 0-71z m-71-107l857 0 0 143-462 0-36-71-359 0 0-71z m929 143l0-714q0-30-21-50t-50-21l-857 0q-30 0-50 21t-21 50l0 714q0 30 21 50t50 21l857 0q30 0 50-21t21-50z" horiz-adv-x="1000" />
<glyph glyph-name="upload-cloud-1" unicode="&#xe8ff;" d="M760 494q100 0 170-68t70-166-70-166-170-68l-190 0 0 190 106 0-176 230-174-230 104 0 0-190-248 0q-74 0-128 52t-54 124q0 74 53 126t129 52q14 0 20-2-2 12-2 38 0 108 78 184t188 76q90 0 160-52t94-134q28 4 40 4z" horiz-adv-x="1000" />
<glyph glyph-name="export-1" unicode="&#xe901;" d="M750 60l0 56 100 82 0-188q0-20-15-35t-35-15l-750 0q-20 0-35 15t-15 35l0 550q0 22 14 36t36 14l288 0q-32-24-59-49t-39-39l-10-12-130 0 0-450 650 0z m-82 348q-166 0-242-41t-160-181q0 8 1 22t9 56 22 79 44 83 70 79 107 56 149 23l0 156 332-250-332-260 0 178z" horiz-adv-x="1000" />
<glyph glyph-name="export" unicode="&#xe83e;" d="M786 298l0-145q0-66-47-114t-114-47l-464 0q-66 0-114 47t-47 114l0 464q0 66 47 114t114 47l142 0q7 0 13-5t5-13q0-15-15-18-43-15-74-33-6-2-9-2l-62 0q-37 0-63-26t-26-63l0-464q0-37 26-63t63-26l464 0q37 0 63 26t26 63l0 119q0 11 10 16 16 7 30 21 9 9 20 4 12-5 12-16z m132 277l-214-214q-10-11-25-11-7 0-14 3-22 9-22 33l0 107-89 0q-180 0-244-73-66-76-41-264 2-13-11-19-4-1-7-1-9 0-15 7-6 8-12 17t-22 38-28 56-21 64-10 68q0 27 2 51t8 50 16 49 26 45 38 41 53 34 69 27 89 17 110 6l89 0 0 107q0 23 22 33 7 3 14 3 15 0 25-11l214-214q11-11 11-25t-11-25z" horiz-adv-x="928.571" />
<glyph glyph-name="print" unicode="&#xe852;" d="M214-7l500 0 0 143-500 0 0-143z m0 357l500 0 0 214-89 0q-22 0-38 16t-16 38l0 89-357 0 0-357z m643-36q0 15-11 25t-25 11-25-11-11-25 11-25 25-11 25 11 11 25z m71 0l0-232q0-7-5-13t-13-5l-125 0 0-89q0-22-16-38t-38-16l-536 0q-22 0-38 16t-16 38l0 89-125 0q-7 0-13 5t-5 13l0 232q0 44 32 76t76 32l36 0 0 304q0 22 16 38t38 16l375 0q22 0 49-11t42-27l85-85q16-16 27-42t11-49l0-143 36 0q44 0 76-32t32-76z" horiz-adv-x="928.571" />
<glyph glyph-name="retweet" unicode="&#xe851;" d="M714 11q0-7-5-13t-13-5l-536 0q-4 0-8 1t-5 4-3 4-2 6-1 6l0 335-107 0q-15 0-25 11t-11 25q0 13 8 23l179 214q11 12 27 12t27-12l179-214q8-9 8-23 0-15-11-25t-25-11l-107 0 0-214 321 0q9 0 14-6l89-107q4-6 4-12z m357 232q0-13-8-23l-179-214q-11-13-27-13t-27 13l-179 214q-8 9-8 23 0 15 11 25t25 11l107 0 0 214-321 0q-9 0-14 7l-89 107q-4 5-4 11 0 7 5 13t13 5l536 0q4 0 8-1t5-4 3-4 2-6 1-6l0-335 107 0q15 0 25-11t11-25z" horiz-adv-x="1071.429" />
<glyph glyph-name="retweet-1" unicode="&#xe902;" d="M250 190l272 0 128-140-448 0q-42 0-71 30t-29 70l0 302-102 0 176 198 174-198-100 0 0-262z m650 60l100 0-174-200-176 200 102 0 0 260-274 0-128 140 450 0q40 0 70-29t30-71l0-300z" horiz-adv-x="1000" />
<glyph glyph-name="comment" unicode="&#xe84e;" d="M1000 350q0-97-67-179t-182-130-251-48q-39 0-81 4-110-98-257-135-27-8-64-12-9-1-17 5t-10 16l0 1q-2 2 0 7t1 6 3 5l3 5t4 5 4 5q4 4 17 19t19 21 17 22 18 28 15 33 15 42q-88 50-138 123t-50 157q0 73 40 139t107 114 160 76 194 28q136 0 251-48t182-130 67-179z" horiz-adv-x="1000" />
<glyph glyph-name="location" unicode="&#xe847;" d="M429 493q0 59-42 101t-101 42-101-42-42-101 42-101 101-42 101 42 42 101z m143 0q0-61-18-100l-203-432q-9-18-27-29t-38-11-38 11-26 29l-204 432q-18 39-18 100 0 118 84 202t202 84 202-84 84-202z" horiz-adv-x="571.429" />
<glyph glyph-name="trash" unicode="&#xe844;" d="M286 439l0-321q0-8-5-13t-13-5l-36 0q-8 0-13 5t-5 13l0 321q0 8 5 13t13 5l36 0q8 0 13-5t5-13z m143 0l0-321q0-8-5-13t-13-5l-36 0q-8 0-13 5t-5 13l0 321q0 8 5 13t13 5l36 0q8 0 13-5t5-13z m143 0l0-321q0-8-5-13t-13-5l-36 0q-8 0-13 5t-5 13l0 321q0 8 5 13t13 5l36 0q8 0 13-5t5-13z m71-404l0 529-500 0 0-529q0-12 4-23t8-15 6-5l464 0q2 0 6 5t8 15 4 23z m-375 600l250 0-27 65q-4 5-9 6l-177 0q-6-1-9-6z m518-18l0-36q0-8-5-13t-13-5l-54 0 0-529q0-46-26-80t-63-34l-464 0q-37 0-63 33t-26 79l0 531-54 0q-8 0-13 5t-5 13l0 36q0 8 5 13t13 5l172 0 39 93q8 21 30 35t44 15l179 0q22 0 44-15t30-35l39-93 172 0q8 0 13-5t5-13z" horiz-adv-x="785.714" />
<glyph glyph-name="docs-1" unicode="&#xe905;" d="M970 480q38-10 30-46l-150-556q-4-16-18-23t-30-3l-406 110q-16 4-24 18t-4 28l24 92-180-48q-40-10-50 26l-160 602q-10 36 28 48l454 122q16 4 30-3t18-23l66-244z m-888 190l144-542 392 106-144 540z m702-742l132 492-298 82 76-282q10-34-28-46l-196-52-26-102z" horiz-adv-x="1001" />
<glyph glyph-name="archive" unicode="&#xe909;" d="M840 600l0-50-696 0 0 50q0 22 13 35t25 15l608 0q6 0 14-1t22-14 14-35z m-148 150q6 0 14-1t22-14 14-35l-498 0q0 22 13 35t25 15l410 0z m248-200q34-32 38-46 6-18 0-54l-76-450q-4-22-20-35t-28-15l-710 0q-52 0-60 50-6 26-39 223t-39 227q-10 22-3 44t10 26 21 20l10 10 30 30 0-80 836 0 0 80z m-248-270l0 100-70 0 0-80-260 0 0 80-68 0 0-100q0-50 48-50l300 0q22 0 35 12t13 24z" horiz-adv-x="981" />
<glyph glyph-name="login" unicode="&#xe862;" d="M661 350q0-15-11-25l-304-304q-11-11-25-11t-25 11-11 25l0 161-250 0q-15 0-25 11t-11 25l0 214q0 15 11 25t25 11l250 0 0 161q0 15 11 25t25 11 25-11l304-304q11-11 11-25z m196 196l0-393q0-66-47-114t-114-47l-179 0q-7 0-13 5t-5 13q0 2-1 11t0 15 2 13 6 11 11 4l179 0q37 0 63 26t26 63l0 393q0 37-26 63t-63 26l-174 0t-6 1-6 2-4 3-4 5-1 8q0 2-1 11t0 15 2 13 6 11 11 4l179 0q66 0 114-47t47-114z" horiz-adv-x="857.143" />
<glyph glyph-name="login-1" unicode="&#xe90c;" d="M800 800q42 0 71-29t29-71l0-700q0-40-29-70t-71-30l-450 0q-40 0-69 30t-29 70l0 100 98 0 0-100 450 0 0 700-450 0 0-150-98 0 0 150q0 42 29 71t69 29l450 0z m-350-670l0 120-450 0 0 150 450 0 0 120 200-194z" horiz-adv-x="900" />
<glyph glyph-name="logout" unicode="&#xe867;" d="M357 46q0-2 1-11t0-15-2-13-6-11-11-4l-179 0q-66 0-114 47t-47 114l0 393q0 66 47 114t114 47l179 0q7 0 13-5t5-13q0-2 1-11t0-15-2-13-6-11-11-4l-179 0q-37 0-63-26t-26-63l0-393q0-37 26-63t63-26l174 0t6-1 6-2 4-3 4-5 1-8z m518 304q0-15-11-25l-304-304q-11-11-25-11t-25 11-11 25l0 161-250 0q-15 0-25 11t-11 25l0 214q0 15 11 25t25 11l250 0 0 161q0 15 11 25t25 11 25-11l304-304q11-11 11-25z" horiz-adv-x="928.571" />
<glyph glyph-name="logout-1" unicode="&#xe90d;" d="M502 0l0 100 98 0 0-100q0-40-29-70t-71-30l-400 0q-40 0-70 30t-30 70l0 700q0 42 30 71t70 29l400 0q42 0 71-29t29-71l0-150-98 0 0 150-402 0 0-700 402 0z m398 326l-198-196 0 120-450 0 0 150 450 0 0 120z" horiz-adv-x="900" />
<glyph glyph-name="resize-full-1" unicode="&#xe91c;" d="M476 746l316 0 0-316-100 124-146-152-100 100 152 146z m-230-444l100-100-152-146 122-100-316 0 0 316 100-122z" horiz-adv-x="792" />
<glyph glyph-name="resize-full-2" unicode="&#xe979;" d="M784 111l127 128 0-335-335 0 128 129-128 127 79 79z m-431 686l-129-127 128-127-80-80-126 128-128-129 0 335 335 0z m0-637l-129-127 129-129-335 0 0 335 128-128 128 128z m558 637l0-335-127 129-128-128-79 80 127 127-128 127 335 0z" horiz-adv-x="928" />
<glyph glyph-name="resize-full" unicode="&#xe86b;" d="M421 261q0-7-6-13l-185-185 80-80q11-11 11-25t-11-25-25-11l-250 0q-15 0-25 11t-11 25l0 250q0 15 11 25t25 11 25-11l80-80 185 185q6 6 13 6t13-6l64-64q6-6 6-13z m436 482l0-250q0-15-11-25t-25-11-25 11l-80 80-185-185q-6-6-13-6t-13 6l-64 64q-6 6-6 13t6 13l185 185-80 80q-11 11-11 25t11 25 25 11l250 0q15 0 25-11t11-25z" horiz-adv-x="857.143" />
<glyph glyph-name="resize-full-alt-1" unicode="&#xe97a;" d="M839 55l72 72 0-223-223 0 72 72-184 184 79 79z m-749 591l-72-72 0 223 223 0-72-72 184-184-79-79z m670 79l-72 72 223 0 0-223-72 72-184-184-79 79z m-407-565l-184-184 72-72-223 0 0 223 72-72 184 184z" horiz-adv-x="928" />
<glyph glyph-name="resize-small-2" unicode="&#xe97b;" d="M704 33l-128-129 0 335 335 0-127-128 127-128-79-79z m-686 429l128 129-127 126 79 79 126-126 129 127 0-335-335 0z m0-479l128 128-128 128 335 0 0-335-129 129-127-129z m558 479l0 335 128-127 128 126 78-79-126-126 127-129-335 0z" horiz-adv-x="928" />
<glyph glyph-name="resize-small-1" unicode="&#xe91b;" d="M156 146l-106 100 296 0 0-296-100 106-146-156-100 100z m744 554l-154-144 104-100-294 0 0 294 100-104 144 154z" horiz-adv-x="900" />
<glyph glyph-name="resize-small" unicode="&#xe86d;" d="M429 314l0-250q0-15-11-25t-25-11-25 11l-80 80-185-185q-6-6-13-6t-13 6l-64 64q-6 6-6 13t6 13l185 185-80 80q-11 11-11 25t11 25 25 11l250 0q15 0 25-11t11-25z m421 375q0-7-6-13l-185-185 80-80q11-11 11-25t-11-25-25-11l-250 0q-15 0-25 11t-11 25l0 250q0 15 11 25t25 11 25-11l80-80 185 185q6 6 13 6t13-6l64-64q6-6 6-13z" horiz-adv-x="857.143" />
<glyph glyph-name="resize-small-alt" unicode="&#xe97c;" d="M648 88l-72-72 0 223 223 0-72-72 184-184-79-79z m-448 447l-182 183 79 79 183-182 73 70-1-222-222-1z m-182-552l184 184-72 72 223 0 0-223-72 72-184-184z m782 479l-224 0 0 225 73-72 183 182 79-79-183-183z" horiz-adv-x="928" />
<glyph glyph-name="move-1" unicode="&#xe97e;" d="M521 239l0-167 111 0-168-168-166 168 111 0 0 167 112 0z m-112 223l0 168-111 0 166 167 168-167-111 0 0-168-112 0z m-56-167l-167 0 0-111-168 167 168 168 0-112 167 0 0-112z m223 112l168 0 0 112 167-168-167-167 0 111-168 0 0 112z" horiz-adv-x="928" />
<glyph glyph-name="publish" unicode="&#xe91a;" d="M900 800q42 0 71-30t29-70l0-600q0-42-29-71t-71-29l-198 0 0 98 200 0 0 462-802 0 0-462 200 0 0-98-200 0q-40 0-70 29t-30 71l0 600q0 40 30 70t70 30l800 0z m-770-168q38 0 38 38 0 16-11 26t-27 10-27-11-11-25q0-16 11-27t27-11z m100 0q38 0 38 38 0 16-11 26t-27 10-27-11-11-25q0-16 11-27t27-11z m672 6l0 62-602 0 0-62 602 0z m-404-198l242-240-150 0 0-300-184 0 0 300-150 0z" horiz-adv-x="1000" />
<glyph glyph-name="arrow-combo" unicode="&#xe919;" d="M230 850l230-364-460 0z m0-1000l-230 366 460 0z" horiz-adv-x="460" />
<glyph glyph-name="zoom-in" unicode="&#xe866;" d="M571 404l0-36q0-7-5-13t-13-5l-125 0 0-125q0-7-5-13t-13-5l-36 0q-7 0-13 5t-5 13l0 125-125 0q-7 0-13 5t-5 13l0 36q0 7 5 13t13 5l125 0 0 125q0 7 5 13t13 5l36 0q7 0 13-5t5-13l0-125 125 0q7 0 13-5t5-13z m71-18q0 103-73 177t-177 73-177-73-73-177 73-177 177-73 177 73 73 177z m286-464q0-30-21-50t-50-21q-30 0-50 21l-191 191q-100-69-223-69-80 0-153 31t-126 84-84 126-31 153 31 153 84 126 126 84 153 31 153-31 126-84 84-126 31-153q0-123-69-223l191-191q21-21 21-50z" horiz-adv-x="928.571" />
<glyph glyph-name="chart-pie" unicode="&#xe949;" d="M368 770l0-368-368 0q18 146 121 249t247 119z m106 0q156-20 261-139t105-279q0-174-123-298t-299-124q-160 0-278 105t-140 263l424 0q20 0 35 14t15 36l0 422z" horiz-adv-x="840" />
<glyph glyph-name="zoom-out" unicode="&#xe865;" d="M571 404l0-36q0-7-5-13t-13-5l-321 0q-7 0-13 5t-5 13l0 36q0 7 5 13t13 5l321 0q7 0 13-5t5-13z m71-18q0 103-73 177t-177 73-177-73-73-177 73-177 177-73 177 73 73 177z m286-464q0-30-21-50t-50-21q-30 0-50 21l-191 191q-100-69-223-69-80 0-153 31t-126 84-84 126-31 153 31 153 84 126 126 84 153 31 153-31 126-84 84-126 31-153q0-123-69-223l191-191q21-21 21-50z" horiz-adv-x="928.571" />
<glyph glyph-name="database" unicode="&#xe94e;" d="M686 208q14 20 14-2l0-100q0-74-104-135t-246-61q-140 0-245 61t-105 135l0 100q0 8 4 10t10-8q32-52 125-86t211-34 211 34 125 86z m2 254q8 16 12 0l0-116q0-68-102-114t-248-46q-144 0-247 46t-103 114l0 116q0 20 14 0 30-46 124-75t212-29 212 29 126 75z m-338 328q144 0 247-39t103-93l0-64q0-58-103-99t-247-41-247 41-103 99l0 64q0 54 103 93t247 39z" horiz-adv-x="700" />
<glyph glyph-name="drive" unicode="&#xe94f;" d="M884 304q26-44 14-96l-34-184q-2-20-19-35t-39-15l-712 0q-20 0-38 15t-20 35l-34 184q-8 52 14 96l158 374q22 46 72 46l408 0q50 0 74-46z m-68-132q2 22-10 38t-34 16l-644 0q-22 0-34-16t-10-38l14-74q2-22 19-37t39-15l590 0q22 0 39 15t19 37z" horiz-adv-x="902" />
<glyph glyph-name="down-circled-1" unicode="&#xe918;" d="M460 810q190 0 325-135t135-325-135-325-325-135-325 135-135 325 135 325 325 135z m0-820q148 0 254 106t106 254q0 150-106 255t-254 105-254-105-106-255q0-148 106-254t254-106z m90 554l0-206 112 0-202-190-202 190 112 0 0 206 180 0z" horiz-adv-x="920" />
<glyph glyph-name="down-circled2" unicode="&#xe864;" d="M625 332q0-7-6-13l-178-178q-6-5-13-5t-13 5l-179 179q-8 9-4 20t17 11l107 0 0 196q0 8 5 13t13 5l107 0q8 0 13-5t5-13l0-196 107 0q8 0 13-5t5-13z m-196 321q-83 0-152-41t-110-110-41-152 41-152 110-110 152-41 152 41 110 110 41 152-41 152-110 110-152 41z m429-304q0-117-57-215t-156-156-215-57-215 57-156 156-57 215 57 215 156 156 215 57 215-57 156-156 57-215z" horiz-adv-x="857.143" />
<glyph glyph-name="left-circled-1" unicode="&#xe917;" d="M920 350q0-190-135-325t-325-135-325 135-135 325q0 192 135 326t325 134 325-134 135-326z m-820 0q0-148 106-254t254-106 254 106 106 254q0 150-106 255t-254 105-254-105-106-255z m552-90l-204 0 0-112-190 202 190 204 0-114 204 0 0-180z" horiz-adv-x="920" />
<glyph glyph-name="right-circled-1" unicode="&#xe916;" d="M0 350q0 190 135 325t325 135 325-135 135-325-135-325-325-135-325 135-135 325z m820 0q0 150-105 255t-255 105q-148 0-254-105t-106-255q0-148 106-254t254-106q150 0 255 106t105 254z m-552 90l204 0 0 114 190-204-190-202 0 112-204 0 0 180z" horiz-adv-x="920" />
<glyph glyph-name="up-circled-1" unicode="&#xe915;" d="M460-110q-190 0-325 135t-135 325q0 192 135 326t325 134 325-134 135-326q0-190-135-325t-325-135z m0 820q-148 0-254-105t-106-255q0-148 106-254t254-106q150 0 255 106t105 254q0 150-105 255t-255 105z m-90-552l0 204-112 0 202 192 202-192-112 0 0-204-180 0z" horiz-adv-x="920" />
<glyph glyph-name="up-circled2" unicode="&#xe863;" d="M624 361q-4-11-17-11l-107 0 0-196q0-8-5-13t-13-5l-107 0q-8 0-13 5t-5 13l0 196-107 0q-8 0-13 5t-5 13q0 7 6 13l178 178q6 5 13 5t13-5l179-179q8-9 4-20z m-195 292q-83 0-152-41t-110-110-41-152 41-152 110-110 152-41 152 41 110 110 41 152-41 152-110 110-152 41z m429-304q0-117-57-215t-156-156-215-57-215 57-156 156-57 215 57 215 156 156 215 57 215-57 156-156 57-215z" horiz-adv-x="857.143" />
<glyph glyph-name="down-open-1" unicode="&#xe913;" d="M564 422l-234-224q-18-18-40-18t-40 18l-234 224q-16 16-16 41t16 41q38 38 78 0l196-188 196 188q40 38 78 0 16-16 16-41t-16-41z" horiz-adv-x="580" />
<glyph glyph-name="down-open" unicode="&#xe87b;" d="M899 457q0-30-21-50l-363-363q-21-21-51-21t-50 21l-363 363q-21 20-21 50t21 51l41 42q22 21 51 21 30 0 50-21l271-271 271 271q21 21 50 21t51-21l42-42q21-22 21-51z" horiz-adv-x="928.571" />
<glyph glyph-name="left-open-1" unicode="&#xe912;" d="M242 626q14 16 39 16t41-16q38-36 0-80l-186-196 186-194q38-44 0-80-16-16-40-16t-40 16l-226 236q-16 16-16 38 0 24 16 40 206 214 226 236z" horiz-adv-x="341" />
<glyph glyph-name="left-open" unicode="&#xe87a;" d="M414-28l-364 363q-21 21-21 50t21 50l364 363q21 21 50 21t50-21l42-42q21-21 21-50t-21-50l-271-271 271-271q21-21 21-51t-21-50l-42-42q-21-21-50-21t-50 21z" horiz-adv-x="642.857" />
<glyph glyph-name="right-open" unicode="&#xe879;" d="M613 386q0-29-21-51l-364-363q-21-21-50-21t-50 21l-42 42q-21 22-21 51 0 30 21 50l271 271-271 271q-21 22-21 51 0 30 21 50l42 42q20 21 50 21t50-21l364-363q21-21 21-50z" horiz-adv-x="642.857" />
<glyph glyph-name="right-open-1" unicode="&#xe914;" d="M98 626l226-236q16-16 16-40 0-22-16-38l-226-236q-16-16-40-16t-40 16q-36 36 0 80l186 194-186 196q-36 44 0 80 16 16 41 16t39-16z" horiz-adv-x="340" />
<glyph glyph-name="up-open-1" unicode="&#xe911;" d="M564 280q16-16 16-41t-16-41q-38-38-78 0l-196 188-196-188q-40-38-78 0-16 16-16 41t16 41l234 224q16 16 40 16t40-16z" horiz-adv-x="580" />
<glyph glyph-name="up-open" unicode="&#xe878;" d="M899 171q0-30-21-50l-42-42q-21-21-51-21t-50 21l-271 271-271-271q-20-21-50-21t-50 21l-42 42q-21 20-21 50t21 51l363 363q21 21 50 21t51-21l363-363q21-21 21-51z" horiz-adv-x="928.571" />
<glyph glyph-name="down-open-mini" unicode="&#xe910;" d="M405 470q22 26 48 0 26-22 0-48l-196-192q-22-22-48 0l-196 192q-26 26 0 48 24 24 50 0l170-156z" horiz-adv-x="466" />
<glyph glyph-name="arrows-cw" unicode="&#xe88a;" d="M843 261q0-3-1-4-36-150-150-242t-267-93q-81 0-158 31t-136 88l-72-72q-11-11-25-11t-25 11-11 25l0 250q0 15 11 25t25 11l250 0q15 0 25-11t11-25-11-25l-76-76q40-37 90-57t104-20q75 0 140 36t104 100q6 9 30 65 4 13 17 13l107 0q7 0 13-5t5-13z m14 446l0-250q0-15-11-25t-25-11l-250 0q-15 0-25 11t-11 25 11 25l77 77q-83 76-195 76-75 0-140-36t-104-100q-6-9-30-65-4-13-17-13l-111 0q-7 0-13 5t-5 13l0 4q36 150 151 242t268 93q81 0 158-31t137-87l73 72q11 11 25 11t25-11 11-25z" horiz-adv-x="857.143" />
<glyph glyph-name="left-open-mini" unicode="&#xe91f;" d="M252 180q26-26 0-48-26-26-48 0l-192 194q-24 24 0 50l192 194q22 26 48 0 26-22 0-48l-156-172z" horiz-adv-x="265" />
<glyph glyph-name="play-circled2" unicode="&#xe893;" d="M661 350q0-21-18-31l-304-179q-8-5-18-5-9 0-18 4-18 11-18 31l0 357q0 21 18 31t36-1l304-179q18-10 18-31z m71 0q0 83-41 152t-110 110-152 41-152-41-110-110-41-152 41-152 110-110 152-41 152 41 110 110 41 152z m125 0q0-117-57-215t-156-156-215-57-215 57-156 156-57 215 57 215 156 156 215 57 215-57 156-156 57-215z" horiz-adv-x="857.143" />
<glyph glyph-name="to-end-alt" unicode="&#xe88f;" d="M25-71q-11-11-18-7t-7 18l0 821q0 15 7 18t18-7l396-396q4-4 7-11l0 396q0 15 7 18t18-7l396-396q4-4 7-11l0 378q0 15 11 25t25 11l71 0q15 0 25-11t11-25l0-786q0-15-11-25t-25-11l-71 0q-15 0-25 11t-11 25l0 378q-3-6-7-11l-396-396q-11-11-18-7t-7 18l0 396q-3-6-7-11z" horiz-adv-x="1000" />
<glyph glyph-name="right-open-mini" unicode="&#xe920;" d="M13 180l158 170-158 172q-26 26 0 48 26 26 48 0l192-194q24-26 0-50l-192-194q-22-26-48 0-26 22 0 48z" horiz-adv-x="265" />
<glyph glyph-name="to-start-alt" unicode="&#xe88d;" d="M975 771q11 11 18 7t7-18l0-821q0-15-7-18t-18 7l-396 396q-5 5-7 11l0-396q0-15-7-18t-18 7l-396 396q-5 5-7 11l0-378q0-15-11-25t-25-11l-71 0q-15 0-25 11t-11 25l0 786q0 15 11 25t25 11l71 0q15 0 25-11t11-25l0-378q2 6 7 11l396 396q11 11 18 7t7-18l0-396q2 6 7 11z" horiz-adv-x="1000" />
<glyph glyph-name="up-open-mini" unicode="&#xe921;" d="M62 230q-26-22-50 0-24 24 0 50l196 190q26 26 48 0l196-190q24-26 0-50-24-22-50 0l-170 158z" horiz-adv-x="464" />
<glyph glyph-name="down-open-big" unicode="&#xe922;" d="M63 570l370-356 372 356q22 26 48 0 26-22 0-48l-396-392q-22-22-48 0l-396 392q-26 26 0 48 24 24 50 0z" horiz-adv-x="866" />
<glyph glyph-name="left-open-big" unicode="&#xe923;" d="M452-20q26-26 0-48-26-26-48 0l-392 394q-24 24 0 50l392 394q22 26 48 0 26-22 0-48l-358-372z" horiz-adv-x="465" />
<glyph glyph-name="right-open-big" unicode="&#xe925;" d="M13-20l358 370-358 372q-26 26 0 48 26 26 48 0l392-394q24-26 0-50l-392-394q-22-26-48 0-26 22 0 48z" horiz-adv-x="465" />
<glyph glyph-name="up-open-big" unicode="&#xe924;" d="M804 130l-372 358-370-358q-26-22-50 0-24 24 0 50l396 390q26 26 48 0l396-390q24-26 0-50-26-22-48 0z" horiz-adv-x="864" />
<glyph glyph-name="back-in-time" unicode="&#xe943;" d="M532 760q170 0 289-120t119-290-119-290-289-120q-138 0-252 88l70 76q82-60 182-60 126 0 216 90t90 216q0 128-90 218t-216 90q-124 0-213-86t-93-210l142 0-184-206-184 206 124 0q4 166 123 282t285 116z m-36-190l70 0 0-204 130-130-50-50-150 150 0 234z" horiz-adv-x="940" />
<glyph glyph-name="font" unicode="&#xe8a2;" d="M405 538l-95-251q41-1 86-1t66-1 29 0l16 1q-18 53-51 134-30 74-51 118z m-393-617l-12 0 1 44q12 4 45 10 50 9 61 17 11 9 27 38l132 344 156 404 71 0 6-12 114-268q57-135 69-166 22-57 54-131 15-32 36-92 13-37 36-83 12-27 20-32 12-11 39-13 26-3 57-15 3-22 3-32 0-8-1-15-45 0-107 4-52 4-105 4-44 0-75-1l-112-6-32-1q0 25 2 44l73 16q31 7 38 13 7 7 7 15t-3 18l-26 64-51 127-251 1q-16-36-58-153-13-36-13-47 0-17 9-24 15-12 57-18 2 0 8-1t17-3 23-3q1-16 1-32 0-9-1-15-37 0-195 11l-27-4q-45-8-93-8z" horiz-adv-x="928.571" />
<glyph glyph-name="bold" unicode="&#xe8a3;" d="M310 1q42-18 78-18 73 0 121 23t68 63q21 39 21 101 0 64-23 100-32 52-79 70-45 18-138 18-41 0-56-6l0-80-1-97 2-151q0-8 7-25z m-8 416q24-4 61-4 98 0 147 36t50 125q0 62-47 104t-142 42q-29 0-73-7 0-25 1-43 4-68 3-156l-1-55q0-24 1-43z m-302-496l1 52q25 5 38 7 43 7 69 17 9 15 12 28 5 37 5 108l-1 277q-3 143-5 225-1 49-6 61-1 2-7 7-10 7-39 8-17 1-64 7l-2 46 145 3 212 7 25 1q3 0 8 0t8 0q1 0 12 0t23 0l41 0q49 0 107-15 24-7 54-22 32-16 57-42t36-58 12-68q0-39-18-71t-53-59q-15-11-84-43 99-23 149-81 51-59 51-132 0-42-16-90-12-35-40-65-37-40-78-60t-113-33q-46-8-110-6l-110 2q-47 1-166-6-18-2-152-6z" horiz-adv-x="785.714" />
<glyph glyph-name="italic" unicode="&#xe8a4;" d="M0-77l9 47q2 1 43 11 42 11 65 22 16 21 23 56l15 78 31 150 7 36q4 25 9 47t9 37 7 26 5 17 2 6l16 88 9 35 12 75 4 28 0 21q-23 12-80 16-16 1-21 2l11 57 177-8q22-1 41-1 37 0 119 5 18 1 38 3t20 1q-1-11-3-21-4-16-7-28-31-11-61-17-36-9-56-17-7-17-13-49-5-25-7-46-25-111-37-171l-34-174-21-88-24-131-7-25q-1-4 1-15 36-8 66-12 20-3 37-6-1-16-4-32-4-17-5-23-10 0-13-1-13-1-23-1-5 0-16 2t-81 9l-110 1q-23 1-97-6-41-4-55-5z" horiz-adv-x="571.429" />
<glyph glyph-name="text-height" unicode="&#xe8a5;" d="M45 778l30-15q11-3 118-3l73 0 11 2 64 1 120-1 163 0 19-1q8-1 16 4t12 9l4 4 23 1q8 0 16-1l0-58t1-73l1-56-1-32q0-18-2-28-22-8-38-10-14 24-30 71-4 13-9 35t-6 37-3 16q-7 8-15 11-4 1-24 1t-58-1-62-1q-19 0-37-3-6-54-4-76l1-85 0-185 2-200-1-82q-1-26 6-47 27-14 50-18 1 0 10-3t25-7 24-7q17-4 28-10 3-25 3-28 0-6-2-16-8-1-19-1-61 0-104 6-40 4-133 4-49 0-130-8-27-2-39-2-1 12-1 15l-1 15 0 5q12 18 44 27 78 21 89 28 5 12 7 31 4 107 3 242l-3 239q-1 35 0 66t0 57-1 32-3 8q-3 3-8 3-21 3-83 3-24 0-56-8t-41-14q-7-5-12-18t-12-42-13-47q-3-11-11-18t-11-7q-25 15-31 25l0 214z m928-714q18 0 23-10t-6-25l-70-90q-11-15-27-15t-27 15l-70 90q-11 15-6 25t23 10l45 0 0 571-45 0q-18 0-23 10t6 25l70 90q11 15 27 15t27-15l70-90q11-15 6-25t-23-10l-45 0 0-571 45 0z" horiz-adv-x="1000" />
<glyph glyph-name="text-width" unicode="&#xe8a6;" d="M45 778l30-15q11-3 118-3l73 0 11 2 64 1 249-1 177 0 19-1q8-1 16 4t12 9l4 4 23 1q8 0 16-1l0-58t1-73l1-56-1-32q0-18-2-28-22-8-38-10-14 24-30 71-4 13-9 35t-6 37-3 16q-7 8-15 11-4 1-33 1t-77-1-71-1q-52 0-71-3-6-54-4-76l1-85 0 29 2-200-1-82q-1-26 6-47 27-14 50-18 1 0 10-3t25-7 24-7q17-4 28-10 3-25 3-28 0-6-2-16-8-1-19-1-61 0-104 6-40 4-133 4-46 0-130-7-25-3-39-3-1 12-1 15l-1 15 0 5q12 18 44 27 78 21 89 28 5 12 7 31 3 76 3 242l-3 25q0 148-1 155-1 6-3 8-3 3-8 3-21 3-83 3-28 0-94-8t-74-13q-7-5-12-18t-12-42-13-47q-3-11-11-18t-11-7q-25 15-31 25l0 214z m795-722q15-11 15-27t-15-27l-90-70q-15-11-25-6t-10 23l0 45-571 0 0-45q0-18-10-23t-25 6l-90 70q-15 11-15 27t15 27l90 70q15 11 25 6t10-23l0-45 571 0 0 45q0 18 10 23t25-6z" horiz-adv-x="857.143" />
<glyph glyph-name="align-left" unicode="&#xe8ba;" d="M1000 100l0-71q0-15-11-25t-25-11l-929 0q-15 0-25 11t-11 25l0 71q0 15 11 25t25 11l929 0q15 0 25-11t11-25z m-214 214l0-71q0-15-11-25t-25-11l-714 0q-15 0-25 11t-11 25l0 71q0 15 11 25t25 11l714 0q15 0 25-11t11-25z m143 214l0-71q0-15-11-25t-25-11l-857 0q-15 0-25 11t-11 25l0 71q0 15 11 25t25 11l857 0q15 0 25-11t11-25z m-214 214l0-71q0-15-11-25t-25-11l-643 0q-15 0-25 11t-11 25l0 71q0 15 11 25t25 11l643 0q15 0 25-11t11-25z" horiz-adv-x="1000" />
<glyph glyph-name="align-center" unicode="&#xe8b9;" d="M1000 100l0-71q0-15-11-25t-25-11l-929 0q-15 0-25 11t-11 25l0 71q0 15 11 25t25 11l929 0q15 0 25-11t11-25z m-214 214l0-71q0-15-11-25t-25-11l-500 0q-15 0-25 11t-11 25l0 71q0 15 11 25t25 11l500 0q15 0 25-11t11-25z m143 214l0-71q0-15-11-25t-25-11l-786 0q-15 0-25 11t-11 25l0 71q0 15 11 25t25 11l786 0q15 0 25-11t11-25z m-214 214l0-71q0-15-11-25t-25-11l-357 0q-15 0-25 11t-11 25l0 71q0 15 11 25t25 11l357 0q15 0 25-11t11-25z" horiz-adv-x="1000" />
<glyph glyph-name="align-right" unicode="&#xe8b8;" d="M1000 100l0-71q0-15-11-25t-25-11l-929 0q-15 0-25 11t-11 25l0 71q0 15 11 25t25 11l929 0q15 0 25-11t11-25z m0 214l0-71q0-15-11-25t-25-11l-714 0q-15 0-25 11t-11 25l0 71q0 15 11 25t25 11l714 0q15 0 25-11t11-25z m0 214l0-71q0-15-11-25t-25-11l-857 0q-15 0-25 11t-11 25l0 71q0 15 11 25t25 11l857 0q15 0 25-11t11-25z m0 214l0-71q0-15-11-25t-25-11l-643 0q-15 0-25 11t-11 25l0 71q0 15 11 25t25 11l643 0q15 0 25-11t11-25z" horiz-adv-x="1000" />
<glyph glyph-name="align-justify" unicode="&#xe8b7;" d="M1000 100l0-71q0-15-11-25t-25-11l-929 0q-15 0-25 11t-11 25l0 71q0 15 11 25t25 11l929 0q15 0 25-11t11-25z m0 214l0-71q0-15-11-25t-25-11l-929 0q-15 0-25 11t-11 25l0 71q0 15 11 25t25 11l929 0q15 0 25-11t11-25z m0 214l0-71q0-15-11-25t-25-11l-929 0q-15 0-25 11t-11 25l0 71q0 15 11 25t25 11l929 0q15 0 25-11t11-25z m0 214l0-71q0-15-11-25t-25-11l-929 0q-15 0-25 11t-11 25l0 71q0 15 11 25t25 11l929 0q15 0 25-11t11-25z" horiz-adv-x="1000" />
<glyph glyph-name="list" unicode="&#xe8b6;" d="M143 118l0-107q0-7-5-13t-13-5l-107 0q-7 0-13 5t-5 13l0 107q0 7 5 13t13 5l107 0q7 0 13-5t5-13z m0 214l0-107q0-7-5-13t-13-5l-107 0q-7 0-13 5t-5 13l0 107q0 7 5 13t13 5l107 0q7 0 13-5t5-13z m0 214l0-107q0-7-5-13t-13-5l-107 0q-7 0-13 5t-5 13l0 107q0 7 5 13t13 5l107 0q7 0 13-5t5-13z m857-429l0-107q0-7-5-13t-13-5l-750 0q-7 0-13 5t-5 13l0 107q0 7 5 13t13 5l750 0q7 0 13-5t5-13z m-857 643l0-107q0-7-5-13t-13-5l-107 0q-7 0-13 5t-5 13l0 107q0 7 5 13t13 5l107 0q7 0 13-5t5-13z m857-429l0-107q0-7-5-13t-13-5l-750 0q-7 0-13 5t-5 13l0 107q0 7 5 13t13 5l750 0q7 0 13-5t5-13z m0 214l0-107q0-7-5-13t-13-5l-750 0q-7 0-13 5t-5 13l0 107q0 7 5 13t13 5l750 0q7 0 13-5t5-13z m0 214l0-107q0-7-5-13t-13-5l-750 0q-7 0-13 5t-5 13l0 107q0 7 5 13t13 5l750 0q7 0 13-5t5-13z" horiz-adv-x="1000" />
<glyph glyph-name="indent-left" unicode="&#xe8b5;" d="M214 546l0-321q0-7-5-13t-13-5q-8 0-13 5l-161 161q-5 5-5 13t5 13l161 161q5 5 13 5 7 0 13-5t5-13z m786-429l0-107q0-7-5-13t-13-5l-964 0q-7 0-13 5t-5 13l0 107q0 7 5 13t13 5l964 0q7 0 13-5t5-13z m0 214l0-107q0-7-5-13t-13-5l-607 0q-7 0-13 5t-5 13l0 107q0 7 5 13t13 5l607 0q7 0 13-5t5-13z m0 214l0-107q0-7-5-13t-13-5l-607 0q-7 0-13 5t-5 13l0 107q0 7 5 13t13 5l607 0q7 0 13-5t5-13z m0 214l0-107q0-7-5-13t-13-5l-964 0q-7 0-13 5t-5 13l0 107q0 7 5 13t13 5l964 0q7 0 13-5t5-13z" horiz-adv-x="1000" />
<glyph glyph-name="indent-right" unicode="&#xe8b4;" d="M196 386q0-8-5-13l-161-161q-5-5-13-5-7 0-13 5t-5 13l0 321q0 7 5 13t13 5q8 0 13-5l161-161q5-5 5-13z m804-268l0-107q0-7-5-13t-13-5l-964 0q-7 0-13 5t-5 13l0 107q0 7 5 13t13 5l964 0q7 0 13-5t5-13z m0 214l0-107q0-7-5-13t-13-5l-607 0q-7 0-13 5t-5 13l0 107q0 7 5 13t13 5l607 0q7 0 13-5t5-13z m0 214l0-107q0-7-5-13t-13-5l-607 0q-7 0-13 5t-5 13l0 107q0 7 5 13t13 5l607 0q7 0 13-5t5-13z m0 214l0-107q0-7-5-13t-13-5l-964 0q-7 0-13 5t-5 13l0 107q0 7 5 13t13 5l964 0q7 0 13-5t5-13z" horiz-adv-x="1000" />
<glyph glyph-name="dot" unicode="&#xe94c;" d="M110 460q46 0 78-32t32-78q0-44-32-77t-78-33-78 33-32 77q0 46 32 78t78 32z" horiz-adv-x="220" />
<glyph glyph-name="dot-2" unicode="&#xe94b;" d="M110 460q46 0 78-32t32-78q0-44-32-77t-78-33-78 32-32 78 32 78 78 32z m350 0q46 0 78-32t32-78q0-44-33-77t-77-33q-46 0-78 32t-32 78 32 78 78 32z" horiz-adv-x="570" />
<glyph glyph-name="dot-3" unicode="&#xe94a;" d="M110 460q46 0 78-32t32-78q0-44-32-77t-78-33-78 33-32 77q0 46 32 78t78 32z m350 0q46 0 78-32t32-78q0-44-33-77t-77-33-77 33-33 77q0 46 32 78t78 32z m350 0q46 0 78-32t32-78q0-44-32-77t-78-33-78 33-32 77q0 46 32 78t78 32z" horiz-adv-x="920" />
<glyph glyph-name="off" unicode="&#xe8bb;" d="M857 350q0-87-34-166t-92-137-137-92-166-34-166 34-137 92-92 137-34 166q0 102 45 191t126 151q24 18 53 14t47-28q18-23 14-53t-28-47q-55-41-85-101t-30-127q0-58 23-111t61-91 91-61 111-23 111 23 91 61 61 91 23 111q0 68-30 127t-85 101q-23 18-28 47t14 53q17 24 47 28t53-14q81-61 126-151t45-191z m-357 429l0-357q0-29-21-50t-50-21-50 21-21 50l0 357q0 29 21 50t50 21 50-21 21-50z" horiz-adv-x="857.143" />
<glyph glyph-name="list-alt" unicode="&#xe8bc;" d="M214 189l0-36q0-7-5-13t-13-5l-36 0q-7 0-13 5t-5 13l0 36q0 7 5 13t13 5l36 0q7 0 13-5t5-13z m0 143l0-36q0-7-5-13t-13-5l-36 0q-7 0-13 5t-5 13l0 36q0 7 5 13t13 5l36 0q7 0 13-5t5-13z m0 143l0-36q0-7-5-13t-13-5l-36 0q-7 0-13 5t-5 13l0 36q0 7 5 13t13 5l36 0q7 0 13-5t5-13z m643-286l0-36q0-7-5-13t-13-5l-536 0q-7 0-13 5t-5 13l0 36q0 7 5 13t13 5l536 0q7 0 13-5t5-13z m0 143l0-36q0-7-5-13t-13-5l-536 0q-7 0-13 5t-5 13l0 36q0 7 5 13t13 5l536 0q7 0 13-5t5-13z m0 143l0-36q0-7-5-13t-13-5l-536 0q-7 0-13 5t-5 13l0 36q0 7 5 13t13 5l536 0q7 0 13-5t5-13z m71-393l0 464q0 7-5 13t-13 5l-821 0q-7 0-13-5t-5-13l0-464q0-7 5-13t13-5l821 0q7 0 13 5t5 13z m71 607l0-607q0-37-26-63t-63-26l-821 0q-37 0-63 26t-26 63l0 607q0 37 26 63t63 26l821 0q37 0 63-26t26-63z" horiz-adv-x="1000" />
<glyph glyph-name="flow-cascade" unicode="&#xe951;" d="M520 120q50 0 85-35t35-85-35-85-85-35q-80 0-110 74l-164 0q-88 0-131 54t-43 118l0 464q-72 34-72 110 0 50 35 85t85 35 85-35 35-85q0-76-72-110l0-114q0-78 78-78l164 0q30 72 110 72 50 0 85-35t35-85-35-85-85-35q-80 0-110 74l-164 0q-42 0-78 16l0-194q0-78 78-78l164 0q30 72 110 72z m0 300q-28 0-49-20t-21-50q0-28 21-48t49-20 49 20 21 48q0 30-21 50t-49 20z m-470 280q0-28 21-48t49-20 49 20 21 48q0 30-21 50t-49 20-49-20-21-50z m470-768q28 0 49 20t21 48q0 30-21 50t-49 20-49-20-21-50q0-28 21-48t49-20z" horiz-adv-x="640" />
<glyph glyph-name="flow-branch" unicode="&#xe952;" d="M640 650q0-80-74-110-6-58-28-101t-61-69-68-38-75-26q-42-14-63-22t-47-24-38-40-16-60q70-30 70-110 0-50-35-85t-85-35-85 35-35 85q0 78 72 112l0 378q-72 34-72 110 0 50 35 85t85 35 85-35 35-85q0-76-72-110l0-204q40 30 138 60 58 18 84 29t51 41 29 76q-70 32-70 108 0 50 35 85t85 35 85-35 35-85z m-588 0q0-28 20-48t48-20 49 20 21 48q0 30-21 50t-49 20-48-20-20-50z m68-668q28 0 49 20t21 48q0 30-21 50t-49 20-48-20-20-50q0-28 20-48t48-20z m400 600q28 0 49 20t21 48q0 30-21 50t-49 20-48-20-20-50q0-28 20-48t48-20z" horiz-adv-x="640" />
<glyph glyph-name="flow-tree" unicode="&#xe953;" d="M868 112q72-34 72-112 0-50-35-85t-85-35-85 35-35 85q0 78 72 112l0 114q0 78-76 78l-100 0q-44 0-78 12l0-204q72-34 72-112 0-50-35-85t-85-35-85 35-35 85q0 78 72 112l0 204q-30-12-76-12l-100 0q-34 0-53-19t-22-33-3-26l0-114q72-34 72-112 0-50-35-85t-85-35-85 35-35 85q0 78 72 112l0 114q0 64 43 118t131 54l100 0q76 0 76 52l0 140q-72 34-72 110 0 50 35 85t85 35 85-35 35-85q0-76-72-110l0-140q0-52 78-52l100 0q86 0 129-54t43-118l0-114z m-678-112q0 30-21 50t-49 20-48-20-20-50q0-28 20-48t48-20 49 20 21 48z m212 700q0-28 20-48t48-20 49 20 21 48q0 30-21 50t-49 20-48-20-20-50z m138-700q0 30-21 50t-49 20-48-20-20-50q0-28 20-48t48-20 49 20 21 48z m280-68q28 0 49 20t21 48q0 30-21 50t-49 20-48-20-20-50q0-28 20-48t48-20z" horiz-adv-x="940" />
<glyph glyph-name="flow-line" unicode="&#xe954;" d="M168 162q72-34 72-112 0-50-35-85t-85-35-85 35-35 85q0 78 72 112l0 378q-72 34-72 110 0 50 35 85t85 35 85-35 35-85q0-76-72-110l0-378z m-116 488q0-28 20-48t48-20 49 20 21 48q0 30-21 50t-49 20-48-20-20-50z m68-668q28 0 49 20t21 48q0 30-21 50t-49 20-48-20-20-50q0-28 20-48t48-20z" horiz-adv-x="240" />
<glyph glyph-name="ajust" unicode="&#xe8bd;" d="M429 46l0 607q-83 0-152-41t-110-110-41-152 41-152 110-110 152-41z m429 304q0-117-57-215t-156-156-215-57-215 57-156 156-57 215 57 215 156 156 215 57 215-57 156-156 57-215z" horiz-adv-x="857.143" />
<glyph glyph-name="flow-parallel" unicode="&#xe955;" d="M240 650q0-76-72-110l0-378q72-34 72-112 0-50-35-85t-85-35-85 35-35 85q0 78 72 112l0 378q-72 34-72 110 0 50 35 85t85 35 85-35 35-85z m-50-600q0 30-21 50t-49 20-48-20-20-50q0-28 20-48t48-20 49 20 21 48z m-70 532q28 0 49 20t21 48q0 30-21 50t-49 20-48-20-20-50q0-28 20-48t48-20z m448-420q72-34 72-112 0-50-35-85t-85-35-85 35-35 85q0 78 72 112l0 378q-72 34-72 110 0 50 35 85t85 35 85-35 35-85q0-76-72-110l0-378z m-116 488q0-28 20-48t48-20 49 20 21 48q0 30-21 50t-49 20-48-20-20-50z m68-668q28 0 49 20t21 48q0 30-21 50t-49 20-48-20-20-50q0-28 20-48t48-20z" horiz-adv-x="640" />
<glyph glyph-name="tint" unicode="&#xe8be;" d="M286 207q0 20-11 39-1 1-9 13t-14 21-14 25-12 28q-2 9-12 9t-12-9q-4-13-12-28t-14-25-14-21-9-13q-11-18-11-39 0-30 21-50t50-21 50 21 21 50z m286 71q0-118-84-202t-202-84-202 84-84 202q0 81 45 153 3 5 35 50t56 84 56 99 46 112q5 17 19 26t28 9 29-9 19-26q16-52 46-112t56-99 56-84 35-50q45-71 45-153z" horiz-adv-x="571.429" />
<glyph glyph-name="gauge-1" unicode="&#xe956;" d="M406 178q34 56 214 284t194 220q12-6-96-278t-138-326q-50-86-136-36t-38 136z m94 380q-168 0-284-127t-116-311q0-30 2-46 2-22-12-37t-34-17-36 12-18 34q0 8-1 26t-1 28q0 226 145 382t355 156q72 0 134-18l-70-86q-40 4-64 4z m362-62q138-154 138-376 0-38-2-56-2-20-16-33t-34-13l-4 0q-22 4-35 20t-11 36q2 14 2 46 0 150-80 268 6 14 20 51t22 57z" horiz-adv-x="1000" />
<glyph glyph-name="spin1" unicode="&#xe801;" d="M496 850c-176 0-331-90-421-226-18-27-33-55-45-85-12-29-22-60-28-92 0 0 0-1 0-1 0-1 0-2 0-2 0-6 5-12 12-12l101 0c5 0 10 3 11 9 29 113 109 206 213 254 20 9 42 17 64 22 30 8 62 12 94 12 25 0 50-3 75-7 5-1 9-2 14-3s10-2 14-4c5-1 10 1 13 5l50 87c1 1 1 2 1 3 2 6-1 13-7 15-21 7-43 13-65 17-4 1-9 2-13 2-27 4-54 7-82 7z m327-114c-4 0-8-2-10-6l-50-87c-3-5-2-11 2-15 30-29 55-63 74-100 4-7 7-15 10-22 20-46 31-97 31-151 0-77-23-149-62-209-8-12-16-23-25-34s-18-21-28-30c-4-4-5-9-2-14l50-87c0-1 1-2 2-2 4-5 12-5 16-1 58 52 104 117 134 190 6 14 11 29 15 44 14 46 21 94 21 144 0 108-34 209-92 291-11 16-23 31-37 46-13 15-27 28-41 41-1 1-1 1-2 1-2 1-4 1-6 2z m-811-468c-1 0-2 0-2 0-6-1-10-7-9-14 34-166 149-302 302-366 30-12 61-22 93-28s66-10 100-10c40 0 79 5 117 14 7 2 14 4 22 6 7 2 14 4 21 7 1 0 2 1 3 1 6 3 7 10 4 16l-50 87c-3 4-8 7-13 5-14-4-28-7-42-9-3 0-5-1-8-1-17-2-35-4-52-4-128 0-242 63-312 160 0 0 0 0 0 1-14 19-25 39-35 60s-18 43-24 66c-1 6-6 10-12 10l-101 0z" horiz-adv-x="1000" />
<glyph glyph-name="spin2" unicode="&#xe802;" d="M46 144s0 0 0 1c-8 18-15 36-21 55s-11 38-15 57c-19 99-9 204 35 298 3 6 10 8 15 5 1 0 1-1 2-1l80-59c5-3 6-10 4-15-5-12-9-25-12-37-4-13-6-26-8-39-11-68-3-137 22-201 2-5 0-11-4-13l-80-56c-5-4-12-2-16 3 0 1-1 1-1 2z m120 575s0 0 1 0c15 13 30 26 46 37 16 12 33 22 50 32 89 49 193 71 297 60 6-1 11-6 10-13 0-1 0-2-1-2l-32-93c-2-6-7-9-13-8-13 1-26 1-40 0s-27-2-40-4c-68-11-133-40-186-83-4-3-10-3-14 0l-78 58c-5 4-6 11-2 16 0 1 1 1 2 2z m589 65s0 0 1 0c17-10 34-20 50-32s31-24 46-38c75-69 128-160 149-262 1-6-3-12-9-13-1 0-2 0-2 0l-99 1c-6 0-11 4-12 10-3 13-7 25-12 37-5 13-10 25-16 37-31 61-79 113-137 150-5 3-6 8-5 13l31 92c2 6 9 9 15 7 1 0 1-1 2-1z m244-535s0 0 0-1c-4-19-9-38-15-57s-14-37-22-55c-43-92-114-170-205-221-6-3-13-1-16 5 0 1-1 1-1 2l-30 94c-2 6 1 11 6 14 11 7 22 15 32 23 11 8 21 17 30 27 49 48 84 109 101 176 1 5 6 9 11 9l98-1c6 0 11-5 11-12 0-1 0-2 0-2z m-438-395s0 0-1 0c-20-2-40-3-59-3-20 0-40 1-60 4-101 12-198 55-276 125-5 4-5 11 0 16 1 1 1 1 2 2l81 57c5 3 11 3 15-1 10-8 21-16 32-23s23-14 35-20c61-31 131-45 200-41 5 0 10-3 12-8l29-92c2-6-2-12-8-14-1 0-1 0-2 0z" horiz-adv-x="1000" />
<glyph glyph-name="spin3" unicode="&#xe803;" d="M494 850c-266 0-482-210-494-473-1-18 13-19 13-19l84 0c16 0 19 9 20 18 9 199 175 358 377 358 108 0 205-45 274-118l-59-57c-10-12-10-27 5-32l247-50c21-5 46 11 38 44l-58 228c-1 9-16 22-29 12l-64-60c-90 92-215 148-353 148z m410-509c-16 0-19-9-20-18-9-199-175-358-377-358-108 0-205 45-274 118l59 57c10 12 10 27-5 32l-247 50c-21 5-46-11-38-44l58-228c1-9 16-22 29-12l64 60c90-92 215-148 353-148 266 0 482 210 494 473 1 18-13 19-13 19l-84 0z" horiz-adv-x="1000" />
<glyph glyph-name="spin4" unicode="&#xe800;" d="M498 850c-114 0-227-39-320-116 173 140 427 130 588-31 134-134 163-333 89-495-10-29-6-50 12-68 21-21 61-23 84 0 3 3 12 14 15 24 71 180 33 393-112 539-98 98-227 147-356 147z m-408-274c-15 0-29-6-40-16-3-3-12-14-15-24-71-180-33-393 112-539 185-185 479-195 676-31-173-140-427-130-588 31-134 134-163 333-89 495 10 29 6 50-12 68-11 11-27 17-44 16z" horiz-adv-x="1001" />
<glyph glyph-name="spin5" unicode="&#xe804;" d="M462 850c-6 0-12-5-12-12l0-182c0-6 5-12 12-12l69 0s1 0 1 0c6 0 12 5 12 12l0 182c0 6-5 12-12 12l-69 0s-1 0-1 0z m250-47c-4 0-8-2-10-6l-91-158c-3-6-1-13 4-16l60-35s0 0 1 0c6-3 13-1 16 4l91 158c3 6 1 13-4 16l-61 35c-2 1-4 1-5 2z m-428-3c-2 0-4-1-5-2l-61-35c-5-3-7-10-4-16l91-157s0 0 0-1c3-6 10-7 16-4l61 35c5 3 7 10 4 16l-91 157s0 0 0 1c-2 4-6 6-10 6z m620-162c-2 0-4-1-5-2l-157-91s0 0-1 0c-6-3-7-10-4-16l35-61c3-5 10-7 16-4l157 91s0 0 1 0c6 3 7 10 4 16l-35 61c-2 4-6 6-10 6z m-810-5c-4 0-8-2-10-6l-35-61c-3-6-1-13 4-16l158-91c6-3 13-1 16 4l35 60s0 0 0 1c3 6 1 13-4 16l-158 91c-2 1-4 1-5 2z m713-234c-6 0-12-5-12-12l0-69s0-1 0-1c0-6 5-12 12-12l182 0c6 0 12 5 12 12l0 69s0 1 0 1c0 6-5 12-12 12l-182 0z m-795-5c-6 0-12-5-12-12l0-69s0-1 0-1c0-6 5-12 12-12l182 0c6 0 12 5 12 12l0 69s0 1 0 1c0 6-5 12-12 12l-182 0z m773-153c-4 0-8-2-10-6l-35-60s0 0 0-1c-3-6-1-13 4-16l158-91c6-3 13-1 16 4l35 61c3 6 1 13-4 16l-158 91c-2 1-4 1-5 2z m-566-5c-2 0-4-1-5-2l-157-91s0 0-1 0c-6-3-7-10-4-16l35-61c3-5 10-7 16-4l157 91s0 0 1 0c6 3 7 10 4 16l-35 61c-2 4-6 6-10 6z m467-121c-2 0-4-1-5-2l-61-35c-5-3-7-10-4-16l91-157s0 0 0-1c3-6 10-7 16-4l61 35c5 3 7 10 4 16l-91 157s0 0 0 1c-2 4-6 6-10 6z m-366-3c-4 0-8-2-10-6l-91-158c-3-6-1-13 4-16l61-35c6-3 13-1 16 4l91 158c3 6 1 13-4 16l-60 35s0 0-1 0c-2 1-4 2-5 2z m148-57c-6 0-12-5-12-12l0-182c0-6 5-12 12-12l69 0s1 0 1 0c6 0 12 5 12 12l0 182c0 6-5 12-12 12l-69 0s-1 0-1 0z" horiz-adv-x="1000" />
<glyph glyph-name="spin6" unicode="&#xe805;" d="M855 9c-188-189-520-171-704 13-191 191-200 494-28 696 11 13 21 25 35 34 37 23 85 18 117-13 30-30 36-76 17-112-5-9-9-15-16-22-140-151-145-379-8-516 153-153 407-121 541 34 107 123 143 297 78 451-84 198-305 291-510 222 236 83 492-23 588-251 70-167 37-355-72-494-11-15-24-29-37-42z" horiz-adv-x="1000" />
<glyph glyph-name="move" unicode="&#xe86f;" d="M1000 350q0-15-11-25l-143-143q-11-11-25-11t-25 11-11 25l0 71-214 0 0-214 71 0q15 0 25-11t11-25-11-25l-143-143q-11-11-25-11t-25 11l-143 143q-11 11-11 25t11 25 25 11l71 0 0 214-214 0 0-71q0-15-11-25t-25-11-25 11l-143 143q-11 11-11 25t11 25l143 143q11 11 25 11t25-11 11-25l0-71 214 0 0 214-71 0q-15 0-25 11t-11 25 11 25l143 143q11 11 25 11t25-11l143-143q11-11 11-25t-11-25-25-11l-71 0 0-214 214 0 0 71q0 15 11 25t25 11 25-11l143-143q11-11 11-25z" horiz-adv-x="1000" />
<glyph glyph-name="link-ext" unicode="&#xe832;" d="M786 332l0-179q0-66-47-114t-114-47l-464 0q-66 0-114 47t-47 114l0 464q0 66 47 114t114 47l393 0q8 0 13-5t5-13l0-36q0-8-5-13t-13-5l-393 0q-37 0-63-26t-26-63l0-464q0-37 26-63t63-26l464 0q37 0 63 26t26 63l0 179q0 8 5 13t13 5l36 0q8 0 13-5t5-13z m214 482l0-286q0-15-11-25t-25-11-25 11l-98 98-364-364q-6-6-13-6t-13 6l-64 64q-6 6-6 13t6 13l364 364-98 98q-11 11-11 25t11 25 25 11l286 0q15 0 25-11t11-25z" horiz-adv-x="1000" />
<glyph glyph-name="check-empty" unicode="&#xe8c0;" d="M625 707l-464 0q-37 0-63-26t-26-63l0-464q0-37 26-63t63-26l464 0q37 0 63 26t26 63l0 464q0 37-26 63t-63 26z m161-89l0-464q0-66-47-114t-114-47l-464 0q-66 0-114 47t-47 114l0 464q0 66 47 114t114 47l464 0q66 0 114-47t47-114z" horiz-adv-x="785.714" />
<glyph glyph-name="bookmark-empty" unicode="&#xe826;" d="M643 707l-571 0 0-693 236 227 50 47 50-47 236-227 0 693z m7 71q13 0 25-5 18-7 29-23t11-35l0-719q0-19-11-35t-29-23q-11-4-25-4-27 0-46 18l-246 237-246-237q-20-18-46-18-13 0-25 5-18 7-29 23t-11 35l0 719q0 19 11 35t29 23q12 5 25 5l585 0z" horiz-adv-x="714.286" />
<glyph glyph-name="hdd" unicode="&#xe8ce;" d="M580 171q0-18-13-32t-32-13-32 13-13 32 13 32 32 13 32-13 13-32z m143 0q0-18-13-32t-32-13-32 13-13 32 13 32 32 13 32-13 13-32z m62-89l0 179q0 7-5 13t-13 5l-679 0q-7 0-13-5t-5-13l0-179q0-7 5-13t13-5l679 0q7 0 13 5t5 13z m-686 268l658 0-88 269q-2 7-9 12t-15 5l-436 0q-8 0-15-5t-9-12z m758-89l0-179q0-37-26-63t-63-26l-679 0q-37 0-63 26t-26 63l0 179q0 14 9 42l110 338q9 30 35 48t56 18l436 0q31 0 56-18t35-48l110-338q9-28 9-42z" horiz-adv-x="857.143" />
<glyph glyph-name="certificate" unicode="&#xe8cb;" d="M768 350l77-75q17-16 11-39-7-23-29-28l-105-27 30-104q7-23-11-39-16-17-39-11l-104 30-27-105q-6-22-28-29-7-1-11-1-17 0-28 12l-75 77-75-77q-16-17-39-11t-28 29l-27 105-104-30q-23-7-39 11-17 16-11 39l30 104-105 27q-22 6-29 28-6 23 11 39l77 75-77 75q-17 16-11 39 7 23 29 28l105 27-30 104q-7 23 11 39 16 17 39 11l104-30 27 105q6 23 28 28 23 7 39-11l75-78 75 78q16 17 39 11t28-28l27-105 104 30q23 7 39-11 17-16 11-39l-30-104 105-27q22-6 29-28 6-23-11-39z" horiz-adv-x="857.143" />
<glyph glyph-name="left-circled" unicode="&#xe884;" d="M714 314l0 71q0 15-11 25t-25 11l-280 0 105 105q11 11 11 25t-11 25l-51 51q-10 10-25 10t-25-10l-202-202-51-51q-10-10-10-25t10-25l51-51 202-202q10-10 25-10t25 10l51 51q10 10 10 25t-10 25l-105 105 280 0q15 0 25 11t11 25z m143 36q0-117-57-215t-156-156-215-57-215 57-156 156-57 215 57 215 156 156 215 57 215-57 156-156 57-215z" horiz-adv-x="857.143" />
<glyph glyph-name="right-circled" unicode="&#xe885;" d="M717 350q0 15-10 25l-51 51-202 202q-10 10-25 10t-25-10l-51-51q-10-10-10-25t10-25l105-105-280 0q-15 0-25-11t-11-25l0-71q0-15 11-25t25-11l280 0-105-105q-11-11-11-25t11-25l51-51q10-10 25-10t25 10l202 202 51 51q10 10 10 25z m140 0q0-117-57-215t-156-156-215-57-215 57-156 156-57 215 57 215 156 156 215 57 215-57 156-156 57-215z" horiz-adv-x="857.143" />
<glyph glyph-name="up-circled" unicode="&#xe886;" d="M716 351q0 15-10 25l-202 202-51 51q-10 10-25 10t-25-10l-51-51-202-202q-10-10-10-25t10-25l51-51q10-10 25-10t25 10l105 105 0-280q0-15 11-25t25-11l71 0q15 0 25 11t11 25l0 280 105-105q11-11 25-11t25 11l51 51q10 10 10 25z m141-1q0-117-57-215t-156-156-215-57-215 57-156 156-57 215 57 215 156 156 215 57 215-57 156-156 57-215z" horiz-adv-x="857.143" />
<glyph glyph-name="down-circled" unicode="&#xe887;" d="M716 349q0 15-10 25l-51 51q-10 10-25 10t-25-10l-105-105 0 280q0 15-11 25t-25 11l-71 0q-15 0-25-11t-11-25l0-280-105 105q-11 11-25 11t-25-11l-51-51q-10-10-10-25t10-25l202-202 51-51q10-10 25-10t25 10l51 51 202 202q10 10 10 25z m141 1q0-117-57-215t-156-156-215-57-215 57-156 156-57 215 57 215 156 156 215 57 215-57 156-156 57-215z" horiz-adv-x="857.143" />
<glyph glyph-name="tasks" unicode="&#xe8ca;" d="M571 64l357 0 0 71-357 0 0-71z m-214 286l571 0 0 71-571 0 0-71z m357 286l214 0 0 71-214 0 0-71z m286-464l0-143q0-15-11-25t-25-11l-929 0q-15 0-25 11t-11 25l0 143q0 15 11 25t25 11l929 0q15 0 25-11t11-25z m0 286l0-143q0-15-11-25t-25-11l-929 0q-15 0-25 11t-11 25l0 143q0 15 11 25t25 11l929 0q15 0 25-11t11-25z m0 286l0-143q0-15-11-25t-25-11l-929 0q-15 0-25 11t-11 25l0 143q0 15 11 25t25 11l929 0q15 0 25-11t11-25z" horiz-adv-x="1000" />
<glyph glyph-name="filter" unicode="&#xe8c8;" d="M783 685q9-23-8-39l-275-275 0-414q0-23-22-33-7-3-14-3-15 0-25 11l-143 143q-11 11-11 25l0 271-275 275q-17 16-8 39 9 22 33 22l714 0q23 0 33-22z" horiz-adv-x="785.714" />
<glyph glyph-name="resize-full-alt" unicode="&#xe86c;" d="M716 548l-198-198 198-198 80 80q16 17 39 8 22-9 22-33l0-250q0-15-11-25t-25-11l-250 0q-23 0-33 22-9 22 8 39l80 80-198 198-198-198 80-80q17-17 8-39t-33-22l-250 0q-15 0-25 11t-11 25l0 250q0 23 22 33 22 9 39-8l80-80 198 198-198 198-80-80q-11-11-25-11-7 0-13 3-22 9-22 33l0 250q0 15 11 25t25 11l250 0q23 0 33-22 9-22-8-39l-80-80 198-198 198 198-80 80q-17 17-8 39t33 22l250 0q15 0 25-11t11-25l0-250q0-23-22-33-7-3-14-3-15 0-25 11z" horiz-adv-x="857.143" />
<glyph glyph-name="beaker" unicode="&#xe8c9;" d="M852 42q31-50 12-85t-78-35l-643 0q-59 0-78 35t12 85l281 442 0 223-36 0q-15 0-25 11t-11 25 11 25 25 11l286 0q15 0 25-11t11-25-11-25-25-11l-36 0 0-223z m-435 405l-152-239 397 0-152 239-11 17 0 243-71 0 0-243z" horiz-adv-x="928.571" />
<glyph glyph-name="docs" unicode="&#xe842;" d="M946 636q22 0 38-16t16-38l0-679q0-22-16-38t-38-16l-536 0q-22 0-38 16t-16 38l0 161-304 0q-22 0-38 16t-16 38l0 375q0 22 11 49t27 42l228 228q16 16 42 27t49 11l232 0q22 0 38-16t16-38l0-183q38 22 71 22l232 0z m-304-119l-167-167 167 0 0 167z m-357 214l-167-167 167 0 0 167z m109-361l176 176 0 232-214 0 0-232q0-22-16-38t-38-16l-232 0 0-357 286 0 0 143q0 22 11 49t27 42z m533-449l0 643-214 0 0-232q0-22-16-38t-38-16l-232 0 0-357 500 0z" horiz-adv-x="1000" />
<glyph glyph-name="menu" unicode="&#xe85c;" d="M857 100l0-71q0-15-11-25t-25-11l-786 0q-15 0-25 11t-11 25l0 71q0 15 11 25t25 11l786 0q15 0 25-11t11-25z m0 286l0-71q0-15-11-25t-25-11l-786 0q-15 0-25 11t-11 25l0 71q0 15 11 25t25 11l786 0q15 0 25-11t11-25z m0 286l0-71q0-15-11-25t-25-11l-786 0q-15 0-25 11t-11 25l0 71q0 15 11 25t25 11l786 0q15 0 25-11t11-25z" horiz-adv-x="857.143" />
<glyph glyph-name="list-bullet" unicode="&#xe8b3;" d="M214 64q0-45-31-76t-76-31-76 31-31 76 31 76 76 31 76-31 31-76z m0 286q0-45-31-76t-76-31-76 31-31 76 31 76 76 31 76-31 31-76z m786-232l0-107q0-7-5-13t-13-5l-679 0q-7 0-13 5t-5 13l0 107q0 7 5 13t13 5l679 0q7 0 13-5t5-13z m-786 518q0-45-31-76t-76-31-76 31-31 76 31 76 76 31 76-31 31-76z m786-232l0-107q0-7-5-13t-13-5l-679 0q-7 0-13 5t-5 13l0 107q0 7 5 13t13 5l679 0q7 0 13-5t5-13z m0 286l0-107q0-7-5-13t-13-5l-679 0q-7 0-13 5t-5 13l0 107q0 7 5 13t13 5l679 0q7 0 13-5t5-13z" horiz-adv-x="1000" />
<glyph glyph-name="list-numbered" unicode="&#xe8b2;" d="M213-54q0-45-30-70t-76-26q-59 0-96 37l32 49q27-25 59-25 16 0 28 8t12 24q0 36-59 31l-15 31q4 6 18 24t24 30 21 21l0 1q-9 0-27-1t-27-1l0-30-59 0 0 85 186 0 0-49-53-64q28-7 45-27t17-49z m1 350l0-89-202 0q-3 20-3 30 0 28 13 52t32 38 37 27 32 24 13 25q0 14-8 21t-22 8q-26 0-45-32l-47 33q13 28 40 44t59 16q41 0 69-23t28-63q0-28-19-51t-42-36-42-28-20-29l71 0 0 33 59 0z m786-178l0-107q0-7-5-13t-13-5l-679 0q-7 0-13 5t-5 13l0 107q0 8 5 13t13 5l679 0q7 0 13-5t5-13z m-786 502l0-55-187 0 0 55 60 0q0 23 0 68t0 68l0 7-1 0q-4-9-28-30l-40 42 76 71 59 0 0-225 60 0z m786-216l0-107q0-7-5-13t-13-5l-679 0q-7 0-13 5t-5 13l0 107q0 8 5 13t13 5l679 0q7 0 13-5t5-13z m0 286l0-107q0-7-5-13t-13-5l-679 0q-7 0-13 5t-5 13l0 107q0 7 5 13t13 5l679 0q7 0 13-5t5-13z" horiz-adv-x="1000" />
<glyph glyph-name="strike" unicode="&#xe8b1;" d="M982 350q8 0 13-5t5-13l0-36q0-8-5-13t-13-5l-964 0q-8 0-13 5t-5 13l0 36q0 8 5 13t13 5l964 0z m-713 36q-16 20-28 45-27 54-27 105 0 101 75 172 74 71 219 71 28 0 93-11 37-7 99-27 6-21 12-66 8-69 8-102 0-10-3-25l-7-2-47 3-8 1q-28 83-57 114-49 51-117 51-64 0-102-33-37-32-37-81 0-41 37-78t156-72q39-11 97-37 32-16 53-29l-415 0z m283-143l229 0q4-22 4-51 0-62-23-118-13-31-40-58-21-20-61-45-45-27-85-37-45-12-113-12-64 0-109 13l-78 22q-32 9-40 16-4 4-4 12l0 7q0 60-1 87-1 17 0 38l1 21 0 25 57 1q8-19 17-40t13-31 7-15q20-32 45-52 24-20 59-32 33-12 74-12 36 0 78 15 43 15 68 48 26 34 26 72 0 47-45 88-19 16-76 40z" horiz-adv-x="1000" />
<glyph glyph-name="underline" unicode="&#xe8b0;" d="M27 726q-21 1-25 2l-2 49q7 1 22 1 33 0 62-2 74-4 93-4 48 0 94 2 65 2 81 3 31 0 48 1l-1-8 1-36 0-5q-33-5-69-5-33 0-44-14-7-8-7-74 0-7 0-18t0-14l1-128 8-156q3-69 28-113 20-33 54-51 49-26 99-26 58 0 107 16 31 10 55 28 27 20 36 36 20 31 30 64 12 41 12 128 0 44-2 71t-6 68-8 89l-2 33q-3 37-13 49-19 20-43 19l-56-1-8 2 1 48 47 0 114-6q42-2 109 6l10-1q3-21 3-28 0-4-2-17-25-7-47-7-41-6-44-9-8-8-8-23 0-4 1-15t1-17q4-11 12-221 3-109-8-170-8-42-23-68-21-36-62-69-42-32-102-50-61-18-142-18-93 0-158 26-66 26-100 68t-46 109q-9 45-9 132l0 186q0 105-9 119-14 20-82 22z m830-786l0 36q0 8-5 13t-13 5l-821 0q-8 0-13-5t-5-13l0-36q0-8 5-13t13-5l821 0q8 0 13 5t5 13z" horiz-adv-x="857.143" />
<glyph glyph-name="table" unicode="&#xe8ad;" d="M286 82l0 107q0 8-5 13t-13 5l-179 0q-8 0-13-5t-5-13l0-107q0-8 5-13t13-5l179 0q8 0 13 5t5 13z m0 214l0 107q0 8-5 13t-13 5l-179 0q-8 0-13-5t-5-13l0-107q0-8 5-13t13-5l179 0q8 0 13 5t5 13z m286-214l0 107q0 8-5 13t-13 5l-179 0q-8 0-13-5t-5-13l0-107q0-8 5-13t13-5l179 0q8 0 13 5t5 13z m-286 429l0 107q0 8-5 13t-13 5l-179 0q-8 0-13-5t-5-13l0-107q0-8 5-13t13-5l179 0q8 0 13 5t5 13z m286-214l0 107q0 8-5 13t-13 5l-179 0q-8 0-13-5t-5-13l0-107q0-8 5-13t13-5l179 0q8 0 13 5t5 13z m286-214l0 107q0 8-5 13t-13 5l-179 0q-8 0-13-5t-5-13l0-107q0-8 5-13t13-5l179 0q8 0 13 5t5 13z m-286 429l0 107q0 8-5 13t-13 5l-179 0q-8 0-13-5t-5-13l0-107q0-8 5-13t13-5l179 0q8 0 13 5t5 13z m286-214l0 107q0 8-5 13t-13 5l-179 0q-8 0-13-5t-5-13l0-107q0-8 5-13t13-5l179 0q8 0 13 5t5 13z m0 214l0 107q0 8-5 13t-13 5l-179 0q-8 0-13-5t-5-13l0-107q0-8 5-13t13-5l179 0q8 0 13 5t5 13z m71 179l0-607q0-37-26-63t-63-26l-750 0q-37 0-63 26t-26 63l0 607q0 37 26 63t63 26l750 0q37 0 63-26t26-63z" horiz-adv-x="928.571" />
<glyph glyph-name="magic" unicode="&#xe8c7;" d="M664 526l163 163-60 60-163-163z m249 163q0-15-10-25l-718-718q-10-10-25-10t-25 10l-110 110q-10 10-10 25t10 25l718 718q10 10 25 10t25-10l110-110q10-10 10-25z m-754 106l55-17-55-17-17-55-17 55-55 17 55 17 17 55z m195-90l109-33-109-33-33-109-33 109-109 33 109 33 33 109z m519-267l55-17-55-17-17-55-17 55-55 17 55 17 17 55z m-357 357l55-17-55-17-17-55-17 55-55 17 55 17 17 55z" horiz-adv-x="928.571" />
<glyph glyph-name="columns" unicode="&#xe8ac;" d="M89-7l339 0 0 643-357 0 0-625q0-7 5-13t13-5z m768 18l0 625-357 0 0-643 339 0q7 0 13 5t5 13z m71 679l0-679q0-37-26-63t-63-26l-750 0q-37 0-63 26t-26 63l0 679q0 37 26 63t63 26l750 0q37 0 63-26t26-63z" horiz-adv-x="928.571" />
<glyph glyph-name="sort" unicode="&#xe8d1;" d="M571 243q0-15-11-25l-250-250q-11-11-25-11t-25 11l-250 250q-11 11-11 25t11 25 25 11l500 0q15 0 25-11t11-25z m0 214q0-15-11-25t-25-11l-500 0q-15 0-25 11t-11 25 11 25l250 250q11 11 25 11t25-11l250-250q11-11 11-25z" horiz-adv-x="571.429" />
<glyph glyph-name="sort-down" unicode="&#xe8d2;" d="M571 243q0-15-11-25l-250-250q-11-11-25-11t-25 11l-250 250q-11 11-11 25t11 25 25 11l500 0q15 0 25-11t11-25z" horiz-adv-x="571.429" />
<glyph glyph-name="sort-up" unicode="&#xe8d3;" d="M571 457q0-15-11-25t-25-11l-500 0q-15 0-25 11t-11 25 11 25l250 250q11 11 25 11t25-11l250-250q11-11 11-25z" horiz-adv-x="571.429" />
<glyph glyph-name="gauge" unicode="&#xe8da;" d="M214 207q0 30-21 50t-50 21-50-21-21-50 21-50 50-21 50 21 21 50z m107 250q0 30-21 50t-50 21-50-21-21-50 21-50 50-21 50 21 21 50z m239-268l56 213q3 15-4 27t-21 16-27-4-17-22l-56-213q-33-3-60-24t-35-55q-11-43 11-81t65-50 81 11 50 65q9 33-3 65t-40 51z m368 18q0 30-21 50t-50 21-50-21-21-50 21-50 50-21 50 21 21 50z m-357 357q0 30-21 50t-50 21-50-21-21-50 21-50 50-21 50 21 21 50z m250-107q0 30-21 50t-50 21-50-21-21-50 21-50 50-21 50 21 21 50z m179-250q0-146-79-270-11-16-30-16l-782 0q-20 0-30 16-79 123-79 270 0 102 40 194t107 160 160 107 194 40 194-40 160-107 107-160 40-194z" horiz-adv-x="1000" />
<glyph glyph-name="comment-empty" unicode="&#xe84d;" d="M500 636q-114 0-213-39t-157-105-58-142q0-62 40-119t112-98l49-28-15-54q-13-51-39-96 85 35 153 95l24 21 32-3q39-4 73-4 114 0 213 39t157 105 58 142-58 142-157 105-213 39z m500-286q0-97-67-179t-182-130-251-48q-39 0-81 4-110-98-257-135-27-8-64-12l-3 0q-8 0-15 6t-9 15l0 1q-2 2 0 7t1 6 3 5l3 5t4 5 4 5q4 4 17 19t19 21 17 22 18 28 15 33 15 42q-88 50-138 123t-50 157q0 97 67 179t182 130 251 48 251-48 182-130 67-179z" horiz-adv-x="1000" />
<glyph glyph-name="sitemap" unicode="&#xe8db;" d="M1000 154l0-179q0-22-16-38t-38-16l-179 0q-22 0-38 16t-16 38l0 179q0 22 16 38t38 16l54 0 0 107-286 0 0-107 54 0q22 0 38-16t16-38l0-179q0-22-16-38t-38-16l-179 0q-22 0-38 16t-16 38l0 179q0 22 16 38t38 16l54 0 0 107-286 0 0-107 54 0q22 0 38-16t16-38l0-179q0-22-16-38t-38-16l-179 0q-22 0-38 16t-16 38l0 179q0 22 16 38t38 16l54 0 0 107q0 29 21 50t50 21l286 0 0 107-54 0q-22 0-38 16t-16 38l0 179q0 22 16 38t38 16l179 0q22 0 38-16t16-38l0-179q0-22-16-38t-38-16l-54 0 0-107 286 0q29 0 50-21t21-50l0-107 54 0q22 0 38-16t16-38z" horiz-adv-x="1000" />
<glyph glyph-name="paste" unicode="&#xe8a9;" d="M429-79l500 0 0 357-232 0q-22 0-38 16t-16 38l0 232-214 0 0-643z m143 804l0 36q0 7-5 13t-13 5l-393 0q-7 0-13-5t-5-13l0-36q0-7 5-13t13-5l393 0q7 0 13 5t5 13z m143-375l167 0-167 167 0-167z m286-71l0-375q0-22-16-38t-38-16l-536 0q-22 0-38 16t-16 38l0 89-304 0q-22 0-38 16t-16 38l0 750q0 22 16 38t38 16l607 0q22 0 38-16t16-38l0-183q12-7 20-16l228-228q16-16 27-42t11-49z" horiz-adv-x="1000" />
<glyph glyph-name="lightbulb" unicode="&#xe869;" d="M411 529q0-7-5-13t-13-5-13 5-5 13q0 26-30 40t-59 14q-7 0-13 5t-5 13 5 13 13 5q28 0 56-9t49-30 21-50z m89 0q0 40-19 75t-50 57-69 35-76 13-76-13-69-35-50-57-19-75q0-56 38-100 6-6 17-18t17-18q71-85 79-166l127 0q7 81 79 166 6 6 17 18t17 18q38 44 38 100z m71 0q0-86-57-150-25-27-42-49t-33-53-19-60q26-16 26-46 0-21-14-36 14-15 14-36 0-29-25-45 7-13 7-26 0-26-18-40t-43-14q-11-25-33-39t-49-15-49 15-33 39q-26 0-43 14t-18 40q0 13 7 26-25 16-25 45 0 21 14 36-14 15-14 36 0 30 26 46-2 28-19 60t-33 53-42 49q-57 63-57 150 0 55 25 103t65 79 92 50 104 18 104-18 92-50 65-79 25-103z" horiz-adv-x="571.429" />
<glyph glyph-name="exchange" unicode="&#xe899;" d="M1000 189l0-107q0-7-5-13t-13-5l-768 0 0-107q0-7-5-13t-13-5q-7 0-13 6l-178 179q-5 5-5 12 0 8 5 13l179 179q5 5 13 5 7 0 13-5t5-13l0-107 768 0q7 0 13-5t5-13z m0 304q0-8-5-13l-179-179q-5-5-13-5-7 0-13 5t-5 13l0 107-768 0q-7 0-13 5t-5 13l0 107q0 7 5 13t13 5l768 0 0 107q0 8 5 13t13 5q7 0 13-6l178-178q5-5 5-13z" horiz-adv-x="1000" />
<glyph glyph-name="download-cloud" unicode="&#xe839;" d="M714 332q0 8-5 13t-13 5l-125 0 0 196q0 7-5 13t-13 5l-107 0q-7 0-13-5t-5-13l0-196-125 0q-7 0-13-5t-5-13q0-8 5-13l196-196q5-5 13-5t13 5l196 196q6 7 6 13z m357-125q0-89-63-151t-151-63l-607 0q-103 0-177 73t-73 177q0 73 39 134t105 92q-1 17-1 24 0 118 84 202t202 84q87 0 159-49t105-129q40 35 93 35 59 0 101-42t42-101q0-42-23-77 73-17 119-76t47-133z" horiz-adv-x="1071.429" />
<glyph glyph-name="upload-cloud" unicode="&#xe83a;" d="M714 368q0 8-5 13l-196 196q-5 5-13 5t-13-5l-196-196q-6-7-6-13 0-8 5-13t13-5l125 0 0-196q0-7 5-13t13-5l107 0q7 0 13 5t5 13l0 196 125 0q7 0 13 5t5 13z m357-161q0-89-63-151t-151-63l-607 0q-103 0-177 73t-73 177q0 73 39 134t105 92q-1 17-1 24 0 118 84 202t202 84q87 0 159-49t105-129q40 35 93 35 59 0 101-42t42-101q0-42-23-77 73-17 119-76t47-133z" horiz-adv-x="1071.429" />
</font>
</defs>
</svg>
